Featured TV Shows


The Boys S02E06

Posted By: Tavaz
720p (HD) / WEB-DL IMDb
The Boys S02E06

The Boys S02E06
WEB-DL | MKV | 1248x520 | English | H264 @ 2726 kbps | E-AC-3 @ 640 kbps | 1 h 5 min | 1.54 GiB
Subtitles: ภาษาไทย, Français, Español, 日本語, עברית, 한국어, Русский, Nederlands, Dansk, Bahasa Indonesia, Bokmål, 中文, Suomi, Polski, Türkçe, English, हिन्दी, العربية, Deutsch, Svenska, Italiano, Português


A group of vigilantes known informally as “The Boys” set out to take down corrupt superheroes with no more than blue-collar grit and a willingness to fight dirty.

bfd05317b32248de94a95bda9ff963b9.mkv (1.5 GB)



General
Unique ID : 28755413069139359859381452882892340137 (0x15A21752F08A0881D9C77B465144BBA9)
Complete name : ./bfd05317b32248de94a95bda9ff963b9.mkv
Format : Matroska
Format version : Version 4 / Version 2
File size : 1.54 GiB
Duration : 1 h 5 min
Overall bit rate : 3 372 kb/s
Encoded date : UTC 2020-09-25 00:08:33
Writing application : mkvmerge v45.0.0 ('Heaven in Pennies') 64-bit
Writing library : libebml v1.3.10 + libmatroska v1.5.2

Video
ID : 1
Format : AVC
Format/Info : Advanced Video Codec
Format profile : High@L3.1
Format settings : CABAC / 4 Ref Frames
Format settings, CABAC : Yes
Format settings, RefFrames : 4 frames
Codec ID : V_MPEG4/ISO/AVC
Duration : 1 h 5 min
Bit rate mode : Constant
Bit rate : 2 727 kb/s
Nominal bit rate : 4 000 kb/s
Width : 1 248 pixels
Height : 520 pixels
Display aspect ratio : 2.40:1
Frame rate mode : Constant
Frame rate : 23.976 (24000/1001) FPS
Color space : YUV
Chroma subsampling : 4:2:0
Bit depth : 8 bits
Scan type : Progressive
Bits/(Pixel*Frame) : 0.175
Stream size : 1.24 GiB (81%)
Default : Yes
Forced : No
Color range : Limited
Color primaries : BT.709
Transfer characteristics : BT.709
Matrix coefficients : BT.709

Audio
ID : 2
Format : E-AC-3
Format/Info : Enhanced Audio Coding 3
Format settings, Endianness : Big
Codec ID : A_EAC3
Duration : 1 h 5 min
Bit rate mode : Constant
Bit rate : 640 kb/s
Channel(s) : 6 channels
Channel positions : Front: L C R, Side: L R, LFE
Sampling rate : 48.0 kHz
Frame rate : 187.500 FPS (256 SPF)
Compression mode : Lossy
Stream size : 298 MiB (19%)
Language : English
Service kind : Complete Main
Default : Yes
Forced : No

Text #1
ID : 3
Format : UTF-8
Codec ID : S_TEXT/UTF8
Codec ID/Info : UTF-8 Plain Text
Duration : 1 h 4 min
Bit rate : 67 b/s
Count of elements : 1146
Stream size : 31.9 KiB (0%)
Title : SDH
Language : English
Default : No
Forced : No

Text #2
ID : 4
Format : UTF-8
Codec ID : S_TEXT/UTF8
Codec ID/Info : UTF-8 Plain Text
Duration : 1 h 4 min
Bit rate : 78 b/s
Count of elements : 784
Stream size : 37.1 KiB (0%)
Language : Arabic
Default : No
Forced : No

Text #3
ID : 5
Format : UTF-8
Codec ID : S_TEXT/UTF8
Codec ID/Info : UTF-8 Plain Text
Duration : 1 h 4 min
Bit rate : 43 b/s
Count of elements : 773
Stream size : 20.7 KiB (0%)
Language : Danish
Default : No
Forced : No

Text #4
ID : 6
Format : UTF-8
Codec ID : S_TEXT/UTF8
Codec ID/Info : UTF-8 Plain Text
Duration : 1 h 4 min
Bit rate : 49 b/s
Count of elements : 643
Stream size : 23.5 KiB (0%)
Language : German
Default : No
Forced : No

Text #5
ID : 7
Format : UTF-8
Codec ID : S_TEXT/UTF8
Codec ID/Info : UTF-8 Plain Text
Duration : 1 h 4 min
Bit rate : 49 b/s
Count of elements : 784
Stream size : 23.3 KiB (0%)
Title : Latinoamérica
Language : Spanish
Default : No
Forced : No

Text #6
ID : 8
Format : UTF-8
Codec ID : S_TEXT/UTF8
Codec ID/Info : UTF-8 Plain Text
Duration : 1 h 4 min
Bit rate : 47 b/s
Count of elements : 781
Stream size : 22.5 KiB (0%)
Title : España
Language : Spanish
Default : No
Forced : No

Text #7
ID : 9
Format : UTF-8
Codec ID : S_TEXT/UTF8
Codec ID/Info : UTF-8 Plain Text
Duration : 1 h 4 min
Bit rate : 48 b/s
Count of elements : 783
Stream size : 22.7 KiB (0%)
Language : Finnish
Default : No
Forced : No

Text #8
ID : 10
Format : UTF-8
Codec ID : S_TEXT/UTF8
Codec ID/Info : UTF-8 Plain Text
Duration : 1 h 4 min
Bit rate : 47 b/s
Count of elements : 770
Stream size : 22.3 KiB (0%)
Language : fil
Default : No
Forced : No

Text #9
ID : 11
Format : UTF-8
Codec ID : S_TEXT/UTF8
Codec ID/Info : UTF-8 Plain Text
Duration : 1 h 4 min
Bit rate : 49 b/s
Count of elements : 773
Stream size : 23.2 KiB (0%)
Language : French
Default : No
Forced : No

Text #10
ID : 12
Format : UTF-8
Codec ID : S_TEXT/UTF8
Codec ID/Info : UTF-8 Plain Text
Duration : 1 h 4 min
Bit rate : 76 b/s
Count of elements : 785
Stream size : 36.2 KiB (0%)
Language : Hebrew
Default : No
Forced : No

Text #11
ID : 13
Format : UTF-8
Codec ID : S_TEXT/UTF8
Codec ID/Info : UTF-8 Plain Text
Duration : 1 h 4 min
Bit rate : 139 b/s
Count of elements : 785
Stream size : 65.9 KiB (0%)
Language : Hindi
Default : No
Forced : No

Text #12
ID : 14
Format : UTF-8
Codec ID : S_TEXT/UTF8
Codec ID/Info : UTF-8 Plain Text
Duration : 1 h 4 min
Bit rate : 45 b/s
Count of elements : 784
Stream size : 21.7 KiB (0%)
Language : Indonesian
Default : No
Forced : No

Text #13
ID : 15
Format : UTF-8
Codec ID : S_TEXT/UTF8
Codec ID/Info : UTF-8 Plain Text
Duration : 1 h 4 min
Bit rate : 48 b/s
Count of elements : 781
Stream size : 23.0 KiB (0%)
Language : Italian
Default : No
Forced : No

Text #14
ID : 16
Format : UTF-8
Codec ID : S_TEXT/UTF8
Codec ID/Info : UTF-8 Plain Text
Duration : 1 h 4 min
Bit rate : 40 b/s
Count of elements : 786
Stream size : 19.1 KiB (0%)
Language : Japanese
Default : No
Forced : No

Text #15
ID : 17
Format : UTF-8
Codec ID : S_TEXT/UTF8
Codec ID/Info : UTF-8 Plain Text
Duration : 1 h 4 min
Bit rate : 50 b/s
Count of elements : 786
Stream size : 24.1 KiB (0%)
Language : Korean
Default : No
Forced : No

Text #16
ID : 18
Format : UTF-8
Codec ID : S_TEXT/UTF8
Codec ID/Info : UTF-8 Plain Text
Duration : 1 h 4 min
Bit rate : 48 b/s
Count of elements : 770
Stream size : 22.7 KiB (0%)
Language : Malay
Default : No
Forced : No

Text #17
ID : 19
Format : UTF-8
Codec ID : S_TEXT/UTF8
Codec ID/Info : UTF-8 Plain Text
Duration : 1 h 4 min
Bit rate : 48 b/s
Count of elements : 782
Stream size : 22.8 KiB (0%)
Language : Norwegian Bokmal
Default : No
Forced : No

Text #18
ID : 20
Format : UTF-8
Codec ID : S_TEXT/UTF8
Codec ID/Info : UTF-8 Plain Text
Duration : 1 h 4 min
Bit rate : 46 b/s
Count of elements : 777
Stream size : 22.1 KiB (0%)
Language : Dutch
Default : No
Forced : No

Text #19
ID : 21
Format : UTF-8
Codec ID : S_TEXT/UTF8
Codec ID/Info : UTF-8 Plain Text
Duration : 1 h 4 min
Bit rate : 47 b/s
Count of elements : 771
Stream size : 22.4 KiB (0%)
Language : Polish
Default : No
Forced : No

Text #20
ID : 22
Format : UTF-8
Codec ID : S_TEXT/UTF8
Codec ID/Info : UTF-8 Plain Text
Duration : 1 h 4 min
Bit rate : 49 b/s
Count of elements : 782
Stream size : 23.2 KiB (0%)
Title : Brasil
Language : Portuguese
Default : No
Forced : No

Text #21
ID : 23
Format : UTF-8
Codec ID : S_TEXT/UTF8
Codec ID/Info : UTF-8 Plain Text
Duration : 1 h 4 min
Bit rate : 45 b/s
Count of elements : 781
Stream size : 21.7 KiB (0%)
Title : Portugal
Language : Portuguese
Default : No
Forced : No

Text #22
ID : 24
Format : UTF-8
Codec ID : S_TEXT/UTF8
Codec ID/Info : UTF-8 Plain Text
Duration : 1 h 4 min
Bit rate : 83 b/s
Count of elements : 785
Stream size : 39.7 KiB (0%)
Language : Russian
Default : No
Forced : No

Text #23
ID : 25
Format : UTF-8
Codec ID : S_TEXT/UTF8
Codec ID/Info : UTF-8 Plain Text
Duration : 1 h 4 min
Bit rate : 48 b/s
Count of elements : 781
Stream size : 23.1 KiB (0%)
Language : Swedish
Default : No
Forced : No

Text #24
ID : 26
Format : UTF-8
Codec ID : S_TEXT/UTF8
Codec ID/Info : UTF-8 Plain Text
Duration : 1 h 4 min
Bit rate : 115 b/s
Count of elements : 785
Stream size : 54.9 KiB (0%)
Language : Tamil
Default : No
Forced : No

Text #25
ID : 27
Format : UTF-8
Codec ID : S_TEXT/UTF8
Codec ID/Info : UTF-8 Plain Text
Duration : 1 h 4 min
Bit rate : 123 b/s
Count of elements : 785
Stream size : 58.5 KiB (0%)
Language : Telugu
Default : No
Forced : No

Text #26
ID : 28
Format : UTF-8
Codec ID : S_TEXT/UTF8
Codec ID/Info : UTF-8 Plain Text
Duration : 1 h 4 min
Bit rate : 114 b/s
Count of elements : 785
Stream size : 54.2 KiB (0%)
Language : Thai
Default : No
Forced : No

Text #27
ID : 29
Format : UTF-8
Codec ID : S_TEXT/UTF8
Codec ID/Info : UTF-8 Plain Text
Duration : 1 h 4 min
Bit rate : 46 b/s
Count of elements : 780
Stream size : 21.8 KiB (0%)
Language : Turkish
Default : No
Forced : No

Text #28
ID : 30
Format : UTF-8
Codec ID : S_TEXT/UTF8
Codec ID/Info : UTF-8 Plain Text
Duration : 1 h 4 min
Bit rate : 44 b/s
Count of elements : 785
Stream size : 21.0 KiB (0%)
Title : 简体
Language : Chinese
Default : No
Forced : No

Text #29
ID : 31
Format : UTF-8
Codec ID : S_TEXT/UTF8
Codec ID/Info : UTF-8 Plain Text
Duration : 1 h 4 min
Bit rate : 41 b/s
Count of elements : 785
Stream size : 19.4 KiB (0%)
Title : 繁體
Language : Chinese
Default : No
Forced : No

Menu
00:00:00.000 : en:Amazon original
00:00:05.000 : en:Ratings
00:00:15.000 : en:Previously on
00:01:03.000 : en:Frenchie's old life
00:02:38.000 : en:Removing the chip
00:04:03.000 : en:The deterioration of justice
00:05:56.000 : en:A tv interview
00:06:22.000 : en:Starlight has a new lead
00:08:45.000 : en:Maeve and the deep work together
00:09:49.000 : en:A-train has a tough time
00:11:49.000 : en:Prepping for the medical center
00:13:01.000 : en:Frenchie gets recruited
00:14:49.000 : en:Homelander has a surprise
00:16:04.000 : en:The patients at sage grove
00:22:27.000 : en:The escape plan goes awry
00:25:59.000 : en:Trouble outside the hospital
00:28:01.000 : en:Homelander can't control his anger
00:30:12.000 : en:A meeting with alastair
00:32:28.000 : en:Frenchie has a meltdown
00:33:51.000 : en:A meeting with lamplighter
00:36:28.000 : en:Commandeering a vehicle
00:39:27.000 : en:A battle of conscience
00:44:23.000 : en:Similarities
00:45:42.000 : en:Trying to escape
00:51:03.000 : en:In the hospital
00:52:48.000 : en:Elena finds out the truth
00:54:47.000 : en:A meeting in the woods
00:58:26.000 : en:Stormfront tells the truth
01:02:46.000 : en:Hitchhiking
01:03:10.000 : en:End credits





The Boys S02E06


The Boys S02E06


The Boys S02E06


The Boys S02E06


The Boys S02E06

All episodes