Featured TV Shows


ZeroZeroZero S01E03

Posted By: Tavaz
720p (HD) / HDTV IMDb
ZeroZeroZero S01E03

ZeroZeroZero S01E03
HDTV | MKV | 1280x720 | H264 @ 3200 kbps | AC-3 @ 320 kbps | 1 h 4 min | 1.60 GiB
Genre: Crime, Drama


Based on the book of the same name by bestselling author Roberto Saviano, ZeroZeroZero is an unforgettable exploration of the inner workings of the global cocaine trade.

ZeroZeroZero.S01E07.720p.HDTV.HebSubs.x264-ShowTime.mkv (1.3 GB)
ZeroZeroZero.S01E04.720p.HDTV.HebSubs.x264-ShowTime.mkv (1.2 GB)
ZeroZeroZero.S01E03.720p.HDTV.HebSubs.x264-ShowTime.mkv (1.4 GB)
ZeroZeroZero.S01E02.720p.HDTV.HebSubs.x264-ShowTime.mkv (1.6 GB)
ZeroZeroZero.S01E05.720p.HDTV.HebSubs.x264-ShowTime.mkv (1.2 GB)
ZeroZeroZero.S01E06.720p.HDTV.HebSubs.x264-ShowTime.mkv (1.3 GB)
ZeroZeroZero.S01E01.720p.HDTV.HebSubs.x264-ShowTime.mkv (1.4 GB)
ZeroZeroZero.S01E08.720p.HDTV.HebSubs.x264-ShowTime.mkv (1.2 GB)



General
Unique ID : 305073136665962611441951723905794826672 (0xE582F2EBFB987ADD33BEBE20EE49E1B0)
Complete name : ./ZeroZeroZero.S01E02.720p.HDTV.HebSubs.x264-ShowTime.mkv
Format : Matroska
Format version : Version 4 / Version 2
File size : 1.60 GiB
Duration : 1 h 4 min
Overall bit rate : 3 523 kb/s
Encoded date : UTC 2020-04-16 22:30:10
Writing application : HandBrake 1.3.1 2020010400
Writing library : Lavf58.29.100
ErrorDetectionType : Per level 1

Video
ID : 1
Format : AVC
Format/Info : Advanced Video Codec
Format profile : High@L4.1
Format settings : CABAC / 8 Ref Frames
Format settings, CABAC : Yes
Format settings, RefFrames : 8 frames
Codec ID : V_MPEG4/ISO/AVC
Duration : 1 h 4 min
Bit rate : 3 200 kb/s
Width : 1 280 pixels
Height : 720 pixels
Display aspect ratio : 16:9
Frame rate mode : Constant
Frame rate : 25.000 FPS
Color space : YUV
Chroma subsampling : 4:2:0
Bit depth : 8 bits
Scan type : Progressive
Bits/(Pixel*Frame) : 0.139
Stream size : 1.42 GiB (89%)
Writing library : x264 core 157 r2935 545de2f
Encoding settings : cabac=1 / ref=8 / deblock=1:-3:-3 / analyse=0x3:0x113 / me=umh / subme=7 / psy=1 / psy_rd=1.00:0.00 / mixed_ref=1 / me_range=16 / chroma_me=1 / trellis=2 / 8x8dct=1 / cqm=0 / deadzone=21,11 / fast_pskip=1 / chroma_qp_offset=-2 / threads=12 / lookahead_threads=2 / sliced_threads=0 / nr=0 / decimate=1 / interlaced=0 / bluray_compat=0 / constrained_intra=0 / bframes=5 / b_pyramid=2 / b_adapt=1 / b_bias=0 / direct=1 / weightb=1 / open_gop=0 / weightp=2 / keyint=250 / keyint_min=25 / scenecut=40 / intra_refresh=0 / rc_lookahead=40 / rc=2pass / mbtree=1 / bitrate=3200 / ratetol=1.0 / qcomp=0.60 / qpmin=0 / qpmax=69 / qpstep=4 / cplxblur=20.0 / qblur=0.5 / vbv_maxrate=62500 / vbv_bufsize=78125 / nal_hrd=none / filler=0 / ip_ratio=1.40 / aq=1:1.00
Default : Yes
Forced : No
Color range : Limited
Color primaries : BT.709
Transfer characteristics : BT.709
Matrix coefficients : BT.709

Audio
ID : 2
Format : AC-3
Format/Info : Audio Coding 3
Format settings, Endianness : Big
Codec ID : A_AC3
Duration : 1 h 4 min
Bit rate mode : Constant
Bit rate : 320 kb/s
Channel(s) : 2 channels
Channel positions : Front: L R
Sampling rate : 48.0 kHz
Frame rate : 31.250 FPS (1536 SPF)
Bit depth : 16 bits
Compression mode : Lossy
Delay relative to video : -37 ms
Stream size : 149 MiB (9%)
Title : Stereo
Service kind : Complete Main
Default : Yes
Forced : No





ZeroZeroZero S01E03


ZeroZeroZero S01E03


ZeroZeroZero S01E03


ZeroZeroZero S01E03


ZeroZeroZero S01E03

All episodes