Featured TV Shows


Fargo S04E02

Posted By: Tavaz
1080p (FullHD) / WEBRip IMDb
Fargo S04E02

Fargo S04E02
WEBRip | MKV | 1920x1080 | H264 @ 3119 kbps | E-AC-3 @ 256 kbps | 1 h 1 min | 1.48 GiB
Genre: Crime, Drama, Thriller


A close-knit anthology series dealing with stories involving malice, violence and murder based in and around Minnesota.

e54b2c3e39124e8385703a2866beb3d5.mkv (1.5 GB)



General
Unique ID : 9471444781846084655896508510947973857 (0x720224811D99F339545B0AAD0871AE1)
Complete name : ./e54b2c3e39124e8385703a2866beb3d5.mkv
Format : Matroska
Format version : Version 4 / Version 2
File size : 1.48 GiB
Duration : 1 h 1 min
Overall bit rate : 3 444 kb/s
Writing application : Lavf58.42.100
Writing library : Lavf58.42.100
ErrorDetectionType : Per level 1

Video
ID : 1
Format : AVC
Format/Info : Advanced Video Codec
Format profile : High@L4
Format settings : CABAC / 4 Ref Frames
Format settings, CABAC : Yes
Format settings, RefFrames : 4 frames
Codec ID : V_MPEG4/ISO/AVC
Duration : 1 h 1 min
Bit rate : 3 119 kb/s
Width : 1 920 pixels
Height : 1 080 pixels
Display aspect ratio : 16:9
Frame rate mode : Constant
Frame rate : 23.976 (24000/1001) FPS
Color space : YUV
Chroma subsampling : 4:2:0
Bit depth : 8 bits
Scan type : Progressive
Bits/(Pixel*Frame) : 0.063
Stream size : 1.34 GiB (91%)
Default : Yes
Forced : No

Audio
ID : 2
Format : E-AC-3
Format/Info : Enhanced Audio Coding 3
Format settings, Endianness : Big
Codec ID : A_EAC3
Duration : 1 h 1 min
Bit rate mode : Constant
Bit rate : 256 kb/s
Channel(s) : 6 channels
Channel positions : Front: L C R, Side: L R, LFE
Sampling rate : 48.0 kHz
Frame rate : 187.500 FPS (256 SPF)
Bit depth : 32 bits
Compression mode : Lossy
Delay relative to video : 6 ms
Stream size : 113 MiB (7%)
Service kind : Complete Main
Default : Yes
Forced : No

Text
ID : 3
Format : ASS
Codec ID : S_TEXT/ASS
Codec ID/Info : Advanced Sub Station Alpha
Duration : 1 h 1 min
Compression mode : Lossless
Writing library : Lavc58.80.100 ssa
Default : No
Forced : No





Fargo S04E02


Fargo S04E02


Fargo S04E02


Fargo S04E02


Fargo S04E02

All episodes