Tags
Language
Tags

After the Curfew / Lewat Djam Malam (1954) [Criterion Collection]

Posted By: RSU75
1080p (FullHD) / BDRip IMDb
After the Curfew / Lewat Djam Malam (1954) [Criterion Collection]

Martin Scorsese's World Cinema Project № 3: After the Curfew / Lewat Djam Malam (1954) [Criterion Collection, Spine #1050]
BDRip 1080p | MKV | AVC 1480x1080, ~ 3.8 Mbps | 1hr 43mn | 3.03 GB | Indonesian: AC3, 1 ch, 448 kbps
BDRip 720p | MKV | AVC 988x720, ~ 2.6 Mbps | 1hr 43mn | 2.04 GB | Indonesian: AC3, 1 ch, 256 kbps
Subtitles: English
Genre: Drama



Director: Usmar Ismail
Writer: Asrul Sani
Stars: A.N. Alcaff, Dhalia, Netty Herawati

Giving voice to the anguish of a nation fighting for its soul, Usmar Ismail’s After the Curfew follows the descent into disillusionment of a former freedom fighter who is unable to readjust to civilian life following the revolution that gave Indonesia its independence from the Netherlands. Steeped in moody atmospherics and psychological tension, the film struck its national cinema like a bolt of lightning, illuminating on-screen, for the first time and with unflinching realism, the emotional toll of Indonesian society’s postcolonial struggles.

Extras:
- None




General
Unique ID : 201626869231512465560307821668303451398 (0x97AFEC2942F7B08BA00397FB4CC53506)
Complete name : F:\AfterTheCurfew.1954.Cr.1p\AfterTheCurfew.1954.Cr.1p.mkv
Format : Matroska
Format version : Version 4
File size : 3.03 GiB
Duration : 1 h 43 min
Overall bit rate : 4 199 kb/s
Movie name : Release RSU75
Encoded date : UTC 2020-10-11 14:06:24
Writing application : mkvmerge v6.6.0 ('The Edge Of The In Between') built on Dec 1 2013 17:55:00
Writing library : libebml v1.3.0 + libmatroska v1.4.1

Video
ID : 1
Format : AVC
Format/Info : Advanced Video Codec
Format profile : High@L4.1
Format settings : CABAC / 4 Ref Frames
Format settings, CABAC : Yes
Format settings, Reference fra : 4 frames
Codec ID : V_MPEG4/ISO/AVC
Duration : 1 h 43 min
Bit rate : 3 800 kb/s
Width : 1 480 pixels
Height : 1 080 pixels
Display aspect ratio : 1.370
Frame rate mode : Constant
Frame rate : 23.976 (23976/1000) FPS
Color space : YUV
Chroma subsampling : 4:2:0
Bit depth : 8 bits
Scan type : Progressive
Bits/(Pixel*Frame) : 0.099
Stream size : 2.64 GiB (87%)
Writing library : x264 core 148 r2643 5c65704
Encoding settings : cabac=1 / ref=4 / deblock=1:0:0 / analyse=0x3:0x113 / me=umh / subme=8 / psy=1 / psy_rd=1.00:0.00 / mixed_ref=1 / me_range=24 / chroma_me=1 / trellis=1 / 8x8dct=1 / cqm=0 / deadzone=21,11 / fast_pskip=1 / chroma_qp_offset=-2 / threads=3 / lookahead_threads=1 / sliced_threads=0 / nr=0 / decimate=1 / interlaced=0 / bluray_compat=0 / constrained_intra=0 / bframes=3 / b_pyramid=0 / b_adapt=2 / b_bias=0 / direct=3 / weightb=1 / open_gop=0 / weightp=2 / keyint=250 / keyint_min=25 / scenecut=40 / intra_refresh=0 / rc_lookahead=40 / rc=abr / mbtree=1 / bitrate=3800 / ratetol=1.0 / qcomp=0.60 / qpmin=10 / qpmax=51 / qpstep=4 / ip_ratio=1.41 / aq=1:1.00
Language : English
Default : Yes
Forced : No
Duration_Source : General_Duration

Audio
ID : 2
Format : AC-3
Format/Info : Audio Coding 3
Commercial name : Dolby Digital
Codec ID : A_AC3
Duration : 1 h 43 min
Bit rate mode : Constant
Bit rate : 448 kb/s
Channel(s) : 1 channel
Channel layout : C
Sampling rate : 44.1 kHz
Frame rate : 28.711 FPS (1536 SPF)
Compression mode : Lossy
Stream size : 331 MiB (11%)
Title : Mono
Language : Indonesian
Service kind : Complete Main
Default : Yes
Forced : No
Duration_Source : General_Duration

Text
ID : 3
Format : PGS
Muxing mode : zlib
Codec ID : S_HDMV/PGS
Codec ID/Info : Picture based subtitle format used on BDs/HD-DVDs
Language : English
Default : Yes
Forced : No

Menu
00:00:00.000 : en:Chapter 01
00:05:15.857 : en:Chapter 02
00:13:06.243 : en:Chapter 03
00:20:23.138 : en:Chapter 04
00:28:50.562 : en:Chapter 05
00:36:48.623 : en:Chapter 06
00:47:10.744 : en:Chapter 07
00:54:53.873 : en:Chapter 08
01:00:38.843 : en:Chapter 09
01:08:43.202 : en:Chapter 10
01:11:49.346 : en:Chapter 11
01:16:04.810 : en:Chapter 12
01:19:36.438 : en:Chapter 13
01:23:37.345 : en:Chapter 14
01:29:09.218 : en:Chapter 15
01:33:40.823 : en:Chapter 16
01:38:41.332 : en:Chapter 17





General
Unique ID : 236983509924518402679215159042692638255 (0xB2495D229589A546B05DA2CB5D64662F)
Complete name : F:\AfterTheCurfew.1954.Cr.7p\AfterTheCurfew.1954.Cr.7p.mkv
Format : Matroska
Format version : Version 4
File size : 2.04 GiB
Duration : 1 h 43 min
Overall bit rate : 2 825 kb/s
Movie name : Release RSU75
Encoded date : UTC 2020-10-11 12:14:39
Writing application : mkvmerge v6.6.0 ('The Edge Of The In Between') built on Dec 1 2013 17:55:00
Writing library : libebml v1.3.0 + libmatroska v1.4.1

Video
ID : 1
Format : AVC
Format/Info : Advanced Video Codec
Format profile : High@L4.1
Format settings : CABAC / 4 Ref Frames
Format settings, CABAC : Yes
Format settings, Reference fra : 4 frames
Codec ID : V_MPEG4/ISO/AVC
Duration : 1 h 43 min
Bit rate : 2 600 kb/s
Width : 988 pixels
Height : 720 pixels
Display aspect ratio : 1.371
Original display aspect ratio : 1.370
Frame rate mode : Constant
Frame rate : 23.976 (23976/1000) FPS
Color space : YUV
Chroma subsampling : 4:2:0
Bit depth : 8 bits
Scan type : Progressive
Bits/(Pixel*Frame) : 0.152
Stream size : 1.81 GiB (89%)
Writing library : x264 core 148 r2643 5c65704
Encoding settings : cabac=1 / ref=4 / deblock=1:0:0 / analyse=0x3:0x113 / me=umh / subme=8 / psy=1 / psy_rd=1.00:0.00 / mixed_ref=1 / me_range=24 / chroma_me=1 / trellis=1 / 8x8dct=1 / cqm=0 / deadzone=21,11 / fast_pskip=1 / chroma_qp_offset=-2 / threads=3 / lookahead_threads=1 / sliced_threads=0 / nr=0 / decimate=1 / interlaced=0 / bluray_compat=0 / constrained_intra=0 / bframes=3 / b_pyramid=0 / b_adapt=2 / b_bias=0 / direct=3 / weightb=1 / open_gop=0 / weightp=2 / keyint=250 / keyint_min=25 / scenecut=40 / intra_refresh=0 / rc_lookahead=40 / rc=abr / mbtree=1 / bitrate=2600 / ratetol=1.0 / qcomp=0.60 / qpmin=10 / qpmax=51 / qpstep=4 / ip_ratio=1.41 / aq=1:1.00
Language : English
Default : Yes
Forced : No
Duration_Source : General_Duration

Audio
ID : 2
Format : AC-3
Format/Info : Audio Coding 3
Commercial name : Dolby Digital
Codec ID : A_AC3
Duration : 1 h 43 min
Bit rate mode : Constant
Bit rate : 256 kb/s
Channel(s) : 1 channel
Channel layout : C
Sampling rate : 44.1 kHz
Frame rate : 28.711 FPS (1536 SPF)
Compression mode : Lossy
Stream size : 189 MiB (9%)
Title : Mono
Language : Indonesian
Service kind : Complete Main
Default : Yes
Forced : No
Duration_Source : General_Duration

Text
ID : 3
Format : PGS
Muxing mode : zlib
Codec ID : S_HDMV/PGS
Codec ID/Info : Picture based subtitle format used on BDs/HD-DVDs
Language : English
Default : Yes
Forced : No

Menu
00:00:00.000 : en:Chapter 01
00:05:15.857 : en:Chapter 02
00:13:06.243 : en:Chapter 03
00:20:23.138 : en:Chapter 04
00:28:50.562 : en:Chapter 05
00:36:48.623 : en:Chapter 06
00:47:10.744 : en:Chapter 07
00:54:53.873 : en:Chapter 08
01:00:38.843 : en:Chapter 09
01:08:43.202 : en:Chapter 10
01:11:49.346 : en:Chapter 11
01:16:04.810 : en:Chapter 12
01:19:36.438 : en:Chapter 13
01:23:37.345 : en:Chapter 14
01:29:09.218 : en:Chapter 15
01:33:40.823 : en:Chapter 16
01:38:41.332 : en:Chapter 17




Screenshots 1080p (click to enlarge to original size):

After the Curfew / Lewat Djam Malam (1954) [Criterion Collection]

After the Curfew / Lewat Djam Malam (1954) [Criterion Collection]

After the Curfew / Lewat Djam Malam (1954) [Criterion Collection]



Screenshots 720p (click to enlarge to original size):

After the Curfew / Lewat Djam Malam (1954) [Criterion Collection]






More in My Blog



If you like this release please visit my blog
In it you will find releases of director Martin Scorsese's World Cinema Project