Tags
Language
Tags

Ancient Civilizations: Series 1 (2018)

Posted By: notbanned
1080p (FullHD) / HDTV IMDb
Ancient Civilizations: Series 1 (2018)

Ancient Civilizations: Series 1 (2018)
HDTV | 1920x1080 | .MP4/AVC @ 3190 Kbps | 10x~27min | 6.49 GiB
Audio: English AAC 192 kbps, 2 channels | Subs: English
Genre: Documentary | History

What hidden knowledge lies in our ancient past? A team of renowned scholars has come together to go beyond the surface-level myths, artifacts, and mysteries found in ancient texts and lost cities from around the world. Journey through Eden and the Gnostic Garden to the Pyramids and the Tower of Babel to decipher the code scattered throughout ancient civilizations. Since times immemorial, humankind has searched for the answers to whom we are where we came from and why are we here. Featuring: David Wilcock, Corey Goode, Graham Hancock, Linda Moulton Howe, Andrew Collins, Graham Cere, Freddy Silva, Sean Stone, Gregg Braden, Michael Cremo, Anton Parks, Sonja Grace, Maria Wheatley, Jack Cary, Michael Mott, Robert Bauval, Robert Schoch, Fred Burks, Billy Carson.
Part 1: Searching for the Garden of Eden
In this inaugural episode of Ancient Civilizations, we explore the Garden of Eden with several scholars who have peered past the accepted tales to reveal a forgotten history of the birth of humanity.

Part 2: Gnostic Origins
Our exploration of ancient civilizations continues as we to illuminate the Gnostic worldview.

Part 3: Tree of Life
We explore the tree of life, as it is conceptualized in many ancient civilizations to discover that it is much more than a pervasive myth

Part 4: Tower of Babel
Legends tell us that language once unified ancient civilizations, but a detrimental blunder led to this once-unifying force becoming a means of mass confusion.

Part 5: Lost Cities Beneath the Ocean
Arcane accounts from Egypt, Greece, Rome and Sumeria tell startling similar stories of the oceanic destruction of advanced ancient civilizations which are being rediscovered.

Part 6: New Understandings of the Great Pyramid
Our scholars of ancient civilizations present a new theory concerning the Great Pyramid of Giza.

Part 7: Decoding the Great Sphinx
The great sphinx of Giza, the oldest known monument from the ancient civilizations, stands as a symbol of the arcane mysteries still waiting to be unearthed.

Part 8: Portals to the Universe
Massive stone monuments, intricately placed by ancient civilizations in astronomical alignment, may have once opened portals to the universe.

Part 9: Entrances to Inner Earth
Is there an ancient code which points the way to inner earth civilizations like Agharta and Patala? Oral traditions from indigenous cultures, throughout the world, all point to ancient advanced civilizations thriving deep under the earth. With advances in technology and spelunking, scientific communities are confirming that the Earth’s crust is filled with immense caverns which form vast subterranean networks

Part 10: Interstellar Links to Gobekli Tepe
Was Gobekli Tepe built as a sacred interstellar portal connecting the people of Earth with extraterrestrial civilizations?

General
Complete name : Ancient.Civilizations.Series.1.01of10.Searching.for.the.Garden.of.Eden.1080p.mp4
Format : MPEG-4
Format profile : Base Media
Codec ID : isom (isom)
File size : 658 MiB
Duration : 27 min 10 s
Overall bit rate mode : Variable
Overall bit rate : 3 385 kb/s

Video
ID : 1
Format : AVC
Format/Info : Advanced Video Codec
Format profile : High@L4
Format settings, CABAC : Yes
Format settings, ReFrames : 3 frames
Codec ID : avc1
Codec ID/Info : Advanced Video Coding
Duration : 27 min 10 s
Source duration : 27 min 10 s
Bit rate : 3 190 kb/s
Maximum bit rate : 7 940 kb/s
Width : 1 920 pixels
Height : 1 080 pixels
Display aspect ratio : 16:9
Frame rate mode : Variable
Frame rate : 23.976 (24000/1001) FPS
Minimum frame rate : 23.974 FPS
Maximum frame rate : 23.981 FPS
Color space : YUV
Chroma subsampling : 4:2:0
Bit depth : 8 bits
Scan type : Progressive
Bits/(Pixel*Frame) : 0.064
Stream size : 620 MiB (94%)
Source stream size : 620 MiB (94%)
Writing library : Zencoder Video Encoding System
Tagged date : UTC 2018-01-22 02:06:35

Audio
ID : 2
Format : AAC
Format/Info : Advanced Audio Codec
Format profile : LC
Codec ID : 40
Duration : 27 min 10 s
Bit rate mode : Variable
Bit rate : 192 kb/s
Maximum bit rate : 215 kb/s
Channel(s) : 2 channels
Channel positions : Front: L R
Sampling rate : 48.0 kHz
Frame rate : 46.875 FPS (1024 spf)
Compression mode : Lossy
Stream size : 37.3 MiB (6%)
Encoded date : UTC 2018-01-22 02:06:32
Tagged date : UTC 2018-01-22 02:06:35

Text
ID : 3
Format : Timed Text
Codec ID : tx3g
Duration : 27 min 1 s
Bit rate mode : Variable
Bit rate : 110 b/s
Stream size : 21.8 KiB (0%)
Forced : No
Encoded date : UTC 2018-01-22 02:06:35
Tagged date : UTC 2018-01-22 02:06:35


Screenshots:

Ancient Civilizations: Series 1 (2018)

Ancient Civilizations: Series 1 (2018)

Ancient Civilizations: Series 1 (2018)

Ancient Civilizations: Series 1 (2018)