Tags
Language
Tags

Nat. Geo - Gathering Storm: Series 1 (2020)

Posted By: notbanned
1080p (FullHD) / HDTV
Nat. Geo - Gathering Storm: Series 1 (2020)

Nat. Geo - Gathering Storm: Series 1 (2020)
HDTV | 1920x1080 | .MP4/AVC @ 4545 Kbps | 6x~44min | 8.79 GiB
Audio: English AAC 160 kbps, 2 channels | Subs: English
Genre: Documentary

Hurricanes, typhoons and major storms reach their maximum power at sea, and during that peak power thousands of marine workers are forced to deal with those immense forces in order to carry out their jobs. National Geographic placed more than 1,000 cameras with people working at sea all around the world, on cargo ships, military vessels, fishing boats and oil rigs, to document monster storm systems on a scale never seen before.

Part 1: Hurricane Dorian
A tropical cyclone builds in the mid-Atlantic and the Caribbean and Eastern Seaboard are on high alert. This is what 1,000 cameras captured.

Part 2: Gulf Storms
Over 1,000 cameras capture the devastation caused after a category 3 status hurricane batters the island of Bermuda.

Part 3: Super Typhoon Terror
A super typhoon in the Pacific creates havoc for Japan. While the nation braces for a devastating impact, seafarers are on high alert.

Part 4: Hurricane Humberto
The Gulf of Mexico is one of the busiest and most hurricane-prone areas in the U.S. Will this season bring the monster hurricane everyone fears?

Part 5: Cold Ocean Killer
Our cameras ride with the boats along America’s Northeast as they risk giant winter storms and rogue waves during a deadly Atlantic fishing season.

Part 6: Typhoon Alley
Typhoon Kammuri thunders toward the U.S. territory of Guam and on to the Philippines. This is what our cameras captured in the Western Pacific.

General
Complete name : Gathering.Storm.Series.1.1of6.Hurricane.Dorian.1080p.mp4
Format : MPEG-4
Format profile : Base Media
Codec ID : isom (isom)
File size : 1.46 GiB
Duration : 44 min 28 s
Overall bit rate mode : Variable
Overall bit rate : 4 708 kb/s

Video
ID : 1
Format : AVC
Format/Info : Advanced Video Codec
Format profile : High@L4.1
Format settings, CABAC : No
Format settings, ReFrames : 2 frames
Format settings, GOP : M=1, N=12
Codec ID : avc1
Codec ID/Info : Advanced Video Coding
Duration : 44 min 28 s
Bit rate : 4 545 kb/s
Maximum bit rate : 37.7 Mb/s
Width : 1 920 pixels
Height : 1 080 pixels
Display aspect ratio : 16:9
Frame rate mode : Constant
Frame rate : 29.970 (30000/1001) FPS
Color space : YUV
Chroma subsampling : 4:2:0
Bit depth : 8 bits
Scan type : Progressive
Bits/(Pixel*Frame) : 0.073
Stream size : 1.41 GiB (97%)
Language : English
Encoded date : UTC 2020-09-08 20:07:42
Tagged date : UTC 2020-09-10 12:28:14

Audio
ID : 2
Format : AAC
Format/Info : Advanced Audio Codec
Format profile : LC
Codec ID : 40
Duration : 44 min 28 s
Bit rate mode : Variable
Bit rate : 160 kb/s
Maximum bit rate : 226 kb/s
Channel(s) : 2 channels
Channel positions : Front: L R
Sampling rate : 48.0 kHz
Frame rate : 46.875 FPS (1024 spf)
Compression mode : Lossy
Stream size : 50.8 MiB (3%)
Language : English
Encoded date : UTC 2020-09-10 12:28:03
Tagged date : UTC 2020-09-10 12:28:14

Text
ID : 3
Format : Timed Text
Codec ID : tx3g
Duration : 44 min 23 s
Bit rate mode : Variable
Bit rate : 116 b/s
Stream size : 37.8 KiB (0%)
Forced : No
Encoded date : UTC 2020-09-10 12:28:14
Tagged date : UTC 2020-09-10 12:28:14


Screenshots:

Nat. Geo - Gathering Storm: Series 1 (2020)

Nat. Geo - Gathering Storm: Series 1 (2020)

Nat. Geo - Gathering Storm: Series 1 (2020)

Nat. Geo - Gathering Storm: Series 1 (2020)