Tags
Language
Tags

House of Cards S05 (2017)

Posted By: JohnSmith
House of Cards S05 (2017)

House of Cards S05 (2017)
WEBRip | AVI / XviD@~1000 kb/s | 720x360 | 13x~55mn | 13x~500 MB | English: MP3, 192 kb/s (2 ch)
WEBRip 720p | MKV / AVC@~1600 kb/s | 1280x640 | 13x~55mn | 13x~800 MB
English: AC3, 384 kb/s (6 ch) | Subtitles: English
Genre: Drama

Majority House Whip Francis Underwood takes you on a long journey as he exacts his vengeance on those he feels wronged him - that is, his own cabinet members including the President of the United States himself. Dashing, cunning, methodical and vicious, Frank Underwood along with his equally manipulative yet ambiguous wife, Claire take Washington by storm through climbing the hierarchical ladder to power in this Americanized recreation of the BBC series of the same name.

IMDB - Top Rated TV #32 | Won 2 Golden Globes. Another 25 wins & 179 nominations.



General
Complete name : D:\Downloads\House.of.Cards.S05E01.WEBRip.XviD.MP3-RARBG\House.of.Cards.S05E01.WEBRip.XviD.MP3-RARBG.avi
Format : AVI
Format/Info : Audio Video Interleave
File size : 480 MiB
Duration : 55 min 22 s
Overall bit rate : 1 211 kb/s
Movie name : RARBG.COM - House.of.Cards.S05E01.WEBRip.XviD.MP3-RARBG
Writing application : Lavf56.40.101
Comment : RARBG.COM - House.of.Cards.S05E01.WEBRip.XviD.MP3-RARBG

Video
ID : 0
Format : MPEG-4 Visual
Format profile : Simple@L5
Format settings, BVOP : No
Format settings, QPel : No
Format settings, GMC : No warppoints
Format settings, Matrix : Default (H.263)
Codec ID : XVID
Codec ID/Hint : XviD
Duration : 55 min 21 s
Bit rate : 1 006 kb/s
Width : 720 pixels
Height : 360 pixels
Display aspect ratio : 2.000
Frame rate : 23.976 (24000/1001) FPS
Color space : YUV
Chroma subsampling : 4:2:0
Bit depth : 8 bits
Scan type : Progressive
Compression mode : Lossy
Bits/(Pixel*Frame) : 0.162
Stream size : 399 MiB (83%)
Title : RARBG.COM - House.of.Cards.S05E01.WEBRip.XviD.MP3-RARBG
Writing library : Lavc56.60.100

Audio
ID : 1
Format : MPEG Audio
Format version : Version 1
Format profile : Layer 3
Mode : Joint stereo
Mode extension : MS Stereo
Codec ID : 55
Codec ID/Hint : MP3
Duration : 55 min 22 s
Bit rate mode : Constant
Bit rate : 192 kb/s
Channel(s) : 2 channels
Sampling rate : 48.0 kHz
Compression mode : Lossy
Stream size : 76.0 MiB (16%)
Alignment : Aligned on interleaves
Interleave, duration : 24 ms (0.58 video frame)
Interleave, preload duration : 24 ms
Title : RARBG.COM - House.of.Cards.S05E01.WEBRip.XviD.MP3-RARBG
Writing library : LAME3.99.5ЄЄЄЄЄЄЄЄЄЄ





General
Unique ID : 210925060857962534889151159938098430961 (0x9EAEB067134A1735905589CD04A483F1)
Complete name : D:\Downloads\House.of.Cards.2013.S05E01.720p.WEBRip.x264-MOROSE[rarbg]\house.of.cards.2013.s05e01.720p.webrip.x264-morose.mkv
Format : Matroska
Format version : Version 4 / Version 2
File size : 804 MiB
Duration : 55 min 22 s
Overall bit rate : 2 029 kb/s
Encoded date : UTC 2017-05-30 09:51:16
Writing application : mkvmerge v9.6.0 ('Slave To Your Mind') 64bit
Writing library : libebml v1.3.4 + libmatroska v1.4.5

Video
ID : 1
Format : AVC
Format/Info : Advanced Video Codec
Format profile : High@L4.1
Format settings, CABAC : Yes
Format settings, ReFrames : 8 frames
Codec ID : V_MPEG4/ISO/AVC
Duration : 55 min 21 s
Bit rate : 1 644 kb/s
Width : 1 280 pixels
Height : 640 pixels
Display aspect ratio : 2.000
Frame rate mode : Constant
Frame rate : 23.976 (24000/1001) FPS
Color space : YUV
Chroma subsampling : 4:2:0
Bit depth : 8 bits
Scan type : Progressive
Bits/(Pixel*Frame) : 0.084
Stream size : 651 MiB (81%)
Writing library : x264 core 150 r2833 df79067
Encoding settings : cabac=1 / ref=8 / deblock=1:-3:-3 / analyse=0x3:0x133 / me=umh / subme=9 / psy=1 / psy_rd=1.00:0.15 / mixed_ref=1 / me_range=16 / chroma_me=1 / trellis=2 / 8x8dct=1 / cqm=0 / deadzone=21,11 / fast_pskip=1 / chroma_qp_offset=-3 / threads=12 / lookahead_threads=1 / sliced_threads=0 / nr=0 / decimate=1 / interlaced=0 / bluray_compat=0 / constrained_intra=0 / bframes=3 / b_pyramid=2 / b_adapt=2 / b_bias=0 / direct=3 / weightb=1 / open_gop=0 / weightp=2 / keyint=250 / keyint_min=23 / scenecut=40 / intra_refresh=0 / rc_lookahead=60 / rc=crf / mbtree=1 / crf=18.0 / qcomp=0.60 / qpmin=0 / qpmax=69 / qpstep=4 / ip_ratio=1.40 / aq=3:0.80
Default : Yes
Forced : No

Audio
ID : 2
Format : AC-3
Format/Info : Audio Coding 3
Format settings, Endianness : Big
Codec ID : A_AC3
Duration : 55 min 22 s
Bit rate mode : Constant
Bit rate : 384 kb/s
Channel(s) : 6 channels
Channel positions : Front: L C R, Side: L R, LFE
Sampling rate : 48.0 kHz
Frame rate : 31.250 FPS (1536 spf)
Bit depth : 16 bits
Compression mode : Lossy
Stream size : 152 MiB (19%)
Language : English
Service kind : Complete Main
Default : Yes
Forced : No

Text
ID : 3
Format : UTF-8
Codec ID : S_TEXT/UTF8
Codec ID/Info : UTF-8 Plain Text
Duration : 52 min 17 s
Bit rate : 75 b/s
Count of elements : 751
Stream size : 29.0 KiB (0%)
Title : English SDH
Language : English
Default : No
Forced : No




Screenshots WEBRip

House of Cards S05 (2017)

House of Cards S05 (2017)

House of Cards S05 (2017)


Screenshots WEBRip 720p

House of Cards S05 (2017)

House of Cards S05 (2017)

House of Cards S05 (2017)