Tags
Language
Tags

Smithsonain Ch. - Humboldt: Epic Explorer (2019)

Posted By: Tutorial
1080p (FullHD) / HDTV
Smithsonain Ch. - Humboldt: Epic Explorer (2019)

Smithsonain Ch. - Humboldt: Epic Explorer (2019)
HDTV | 1920 x 1080 | .MP4/AVC @ 4527 Kbps | 44 min 0 s | 1.43 GB
Audio: English AAC 132 Kbps, 2 channels | Subs: English
Genre: Documentary

More than 200 years ago, a scientist named Alexander von Humboldt embarked on a perilous five-year journey through the Venezuelan jungles and Andean Mountains of South America. At the time, it was believed that the world was less than 6,000 years old. Humboldt's groundbreaking observations and theories would not only inspire Charles Darwin, but change our understanding of nature–and the role human’s plays in it–forever. Follow historian and best-selling author Andrea Wulf as she recounts his footsteps and discoveries.

General
Complete name : Humboldt.Epic.Explorer.mp4
Format : MPEG-4
Format profile : Base Media
Codec ID : isom (isom)
File size : 1.43 GiB
Duration : 44 min 0 s
Overall bit rate mode : Variable
Overall bit rate : 4 663 kb/s
Encoded date : UTC 2020-09-16 15:00:06
Tagged date : UTC 2020-09-16 15:00:06

Video
ID : 1
Format : AVC
Format/Info : Advanced Video Codec
Format profile : High@L4.1
Format settings, CABAC : No
Format settings, ReFrames : 2 frames
Format settings, GOP : M=1, N=12
Codec ID : avc1
Codec ID/Info : Advanced Video Coding
Duration : 44 min 0 s
Bit rate : 4 527 kb/s
Maximum bit rate : 22.9 Mb/s
Width : 1 920 pixels
Height : 1 080 pixels
Display aspect ratio : 16:9
Frame rate mode : Constant
Frame rate : 25.000 FPS
Color space : YUV
Chroma subsampling : 4:2:0
Bit depth : 8 bits
Scan type : Progressive
Bits/(Pixel*Frame) : 0.087
Stream size : 1.39 GiB (97%)
Title : Humboldt.Epic.Explorer.1080p.HDTV.x264.AAC..org.mp4
Encoded date : UTC 2020-09-15 09:15:43
Tagged date : UTC 2020-09-16 15:01:49

Audio
ID : 2
Format : AAC
Format/Info : Advanced Audio Codec
Format profile : LC
Codec ID : 40
Duration : 43 min 59 s
Bit rate mode : Variable
Bit rate : 132 kb/s
Maximum bit rate : 179 kb/s
Channel(s) : 2 channels
Channel positions : Front: L R
Sampling rate : 48.0 kHz
Frame rate : 46.875 FPS (1024 spf)
Compression mode : Lossy
Stream size : 41.8 MiB (3%)
Title : Humboldt.Epic.Explorer.1080p.HDTV.x264.AAC..org.mp4
Encoded date : UTC 2020-09-16 15:01:07
Tagged date : UTC 2020-09-16 15:01:49

Text
ID : 3
Format : Timed Text
Codec ID : tx3g
Duration : 43 min 39 s
Bit rate mode : Variable
Bit rate : 110 b/s
Stream size : 35.0 KiB (0%)
Title : Humboldt.Epic.Explorer.1080p.HDTV.x264.AAC..org.srt
Forced : No
Encoded date : UTC 2020-09-16 15:01:49
Tagged date : UTC 2020-09-16 15:01:49
Screenshots

Smithsonain Ch. - Humboldt: Epic Explorer (2019)

Smithsonain Ch. - Humboldt: Epic Explorer (2019)

Smithsonain Ch. - Humboldt: Epic Explorer (2019)

Welcome to my blog - daily update!

Smithsonain Ch. - Humboldt: Epic Explorer (2019)