Tags
Language
Tags

Michael (1924)

Posted By: Tavaz
1080p (FullHD) / BDRip IMDb
Michael (1924)

Michael (1924)
BDRip | MKV | 1440x1080 | H264 @ 13690 kbps | FLAC @ 1237 kbps | 1 h 34 min | 9.84 GiB
Subtitles: English
Genre: Drama, Romance

A famed artist fights his passion for a male model, until the young man falls for a woman.

Michael.1924.1080p.BluRay.x264-USURY.part1.rar (5.2 GB)
Michael.1924.1080p.BluRay.x264-USURY.part2.rar (4.8 GB)



General
Complete name : ./791f78c46ae2ecaa2b85db72ebdc4c6d.mkv
Format : Matroska
Format version : Version 4 / Version 2
File size : 9.84 GiB
Duration : 1 h 34 min
Overall bit rate mode : Variable
Overall bit rate : 14.9 Mb/s
Encoded date : UTC 2018-03-26 18:13:08
Writing application : mkvmerge v8.3.0 ('Over the Horizon') 64bit
Writing library : libebml v1.3.1 + libmatroska v1.4.2

Video
ID : 1
Format : AVC
Format/Info : Advanced Video Codec
Format profile : High@L4.1
Format settings : CABAC / 4 Ref Frames
Format settings, CABAC : Yes
Format settings, RefFrames : 4 frames
Codec ID : V_MPEG4/ISO/AVC
Duration : 1 h 34 min
Bit rate : 13.7 Mb/s
Width : 1 440 pixels
Height : 1 080 pixels
Display aspect ratio : 4:3
Frame rate mode : Constant
Frame rate : 19.181 FPS
Color space : YUV
Chroma subsampling : 4:2:0
Bit depth : 8 bits
Scan type : Progressive
Bits/(Pixel*Frame) : 0.459
Stream size : 9.02 GiB (92%)
Writing library : x264 core 155 r2901 7d0ff22
Encoding settings : cabac=1 / ref=4 / deblock=1:-3:-3 / analyse=0x3:0x133 / me=umh / subme=9 / psy=1 / psy_rd=1.00:0.00 / mixed_ref=1 / me_range=16 / chroma_me=1 / trellis=2 / 8x8dct=1 / cqm=0 / deadzone=21,11 / fast_pskip=0 / chroma_qp_offset=-2 / threads=34 / lookahead_threads=2 / sliced_threads=0 / nr=0 / decimate=1 / interlaced=0 / bluray_compat=0 / constrained_intra=0 / bframes=3 / b_pyramid=2 / b_adapt=1 / b_bias=0 / direct=3 / weightb=1 / open_gop=0 / weightp=2 / keyint=240 / keyint_min=24 / scenecut=40 / intra_refresh=0 / rc_lookahead=50 / rc=2pass / mbtree=1 / bitrate=13690 / ratetol=1.0 / qcomp=0.60 / qpmin=0 / qpmax=69 / qpstep=4 / cplxblur=20.0 / qblur=0.5 / ip_ratio=1.40 / aq=1:1.00
Language : English
Default : Yes
Forced : No

Audio
ID : 2
Format : FLAC
Format/Info : Free Lossless Audio Codec
Codec ID : A_FLAC
Duration : 1 h 34 min
Bit rate mode : Variable
Bit rate : 1 238 kb/s
Channel(s) : 2 channels
Channel positions : Front: L R
Sampling rate : 48.0 kHz
Frame rate : 11.719 FPS (4096 SPF)
Bit depth : 24 bits
Stream size : 835 MiB (8%)
Writing library : libFLAC 1.2.1 (UTC 2007-09-17)
Default : Yes
Forced : No

Text
ID : 3
Format : UTF-8
Codec ID : S_TEXT/UTF8
Codec ID/Info : UTF-8 Plain Text
Duration : 1 h 33 min
Bit rate : 12 b/s
Count of elements : 240
Stream size : 8.73 KiB (0%)
Title : English
Language : English
Default : Yes
Forced : Yes

Menu
00:00:00.000 : en:00:00:00.000
00:10:22.163 : en:00:10:22.163
00:20:29.979 : en:00:20:29.979
00:30:46.011 : en:00:30:46.011
00:40:49.322 : en:00:40:49.322
00:51:07.231 : en:00:51:07.231
01:00:17.697 : en:01:00:17.697
01:10:09.747 : en:01:10:09.747
01:21:48.821 : en:01:21:48.821





Michael (1924)


Michael (1924)


Michael (1924)


Michael (1924)


Michael (1924)