Tags
Language
Tags

She Kills (2016)

Posted By: Tavaz
1080p (FullHD) / BDRip IMDb
She Kills (2016)

She Kills (2016)
BDRip | MKV | 1920x1080 | English | H264 @ 11500 kbps | AC-3 @ 192 kbps | 1 h 41 min | 8.28 GiB
Genre: Action, Horror

When Sadie's husband is murdered by a vicious gang called "The Touchers", she finds she possesses a strange hidden power to aid her in her quest for revenge. A homage to Grindhouse/exploitation pictures of the 1970's.

She.Kills.2016.1080p.BluRay.x264.DD2.0-FGT.part1.rar (4.3 GB)
She.Kills.2016.1080p.BluRay.x264.DD2.0-FGT.part2.rar (4.0 GB)



General
Complete name : ./9566149b244272f8607bed00c89c64d8.mkv
Format : Matroska
Format version : Version 4 / Version 2
File size : 8.28 GiB
Duration : 1 h 41 min
Overall bit rate : 11.7 Mb/s
Encoded date : UTC 2020-09-06 12:55:47
Writing application : mkvmerge v49.0.0 ('Sick Of Losing Soulmates') 64-bit
Writing library : libebml v1.4.0 + libmatroska v1.6.1
Cover : Yes
Attachments : small_cover.jpg / small_cover_land.jpg / cover.jpg / cover_land.jpg

Video
ID : 1
Format : AVC
Format/Info : Advanced Video Codec
Format profile : High@L4.1
Format settings : CABAC / 4 Ref Frames
Format settings, CABAC : Yes
Format settings, RefFrames : 4 frames
Codec ID : V_MPEG4/ISO/AVC
Duration : 1 h 41 min
Bit rate : 11.5 Mb/s
Width : 1 920 pixels
Height : 1 080 pixels
Display aspect ratio : 16:9
Frame rate mode : Constant
Frame rate : 23.976 (24000/1001) FPS
Color space : YUV
Chroma subsampling : 4:2:0
Bit depth : 8 bits
Scan type : Progressive
Bits/(Pixel*Frame) : 0.231
Stream size : 8.14 GiB (98%)
Title : She.Kills.2016.1080p.BluRay.x264.DD2.0-FGT
Writing library : x264 core 148 r2748 97eaef2
Encoding settings : cabac=1 / ref=4 / deblock=1:-2:-2 / analyse=0x3:0x113 / me=umh / subme=9 / psy=1 / psy_rd=1.00:0.15 / mixed_ref=1 / me_range=16 / chroma_me=1 / trellis=2 / 8x8dct=1 / cqm=0 / deadzone=21,11 / fast_pskip=1 / chroma_qp_offset=-3 / threads=24 / lookahead_threads=3 / sliced_threads=0 / nr=0 / decimate=1 / interlaced=0 / bluray_compat=0 / constrained_intra=0 / bframes=3 / b_pyramid=2 / b_adapt=1 / b_bias=0 / direct=3 / weightb=1 / open_gop=0 / weightp=2 / keyint=250 / keyint_min=25 / scenecut=40 / intra_refresh=0 / rc_lookahead=50 / rc=2pass / mbtree=1 / bitrate=11500 / ratetol=1.0 / qcomp=0.60 / qpmin=0 / qpmax=69 / qpstep=4 / cplxblur=20.0 / qblur=0.5 / vbv_maxrate=31250 / vbv_bufsize=31250 / nal_hrd=none / filler=0 / ip_ratio=1.40 / aq=1:1.00
Language : English
Default : Yes
Forced : No

Audio
ID : 2
Format : AC-3
Format/Info : Audio Coding 3
Format settings, Endianness : Big
Codec ID : A_AC3
Duration : 1 h 41 min
Bit rate mode : Constant
Bit rate : 192 kb/s
Channel(s) : 2 channels
Channel positions : Front: L R
Sampling rate : 48.0 kHz
Frame rate : 31.250 FPS (1536 SPF)
Bit depth : 16 bits
Compression mode : Lossy
Stream size : 139 MiB (2%)
Title : She.Kills.2016.1080p.BluRay.x264.DD2.0-FGT
Language : English
Service kind : Complete Main
Default : Yes
Forced : No

Menu
00:00:00.000 : en:Chapter 01
00:04:59.882 : en:Chapter 02
00:09:59.765 : en:Chapter 03
00:14:59.648 : en:Chapter 04
00:19:59.531 : en:Chapter 05
00:24:59.414 : en:Chapter 06
00:29:59.297 : en:Chapter 07
00:34:59.180 : en:Chapter 08
00:39:59.063 : en:Chapter 09
00:44:58.946 : en:Chapter 10
00:49:58.829 : en:Chapter 11
00:54:58.712 : en:Chapter 12
00:59:58.595 : en:Chapter 13
01:04:58.477 : en:Chapter 14
01:09:58.360 : en:Chapter 15
01:14:58.243 : en:Chapter 16
01:19:58.126 : en:Chapter 17
01:24:58.009 : en:Chapter 18
01:29:57.892 : en:Chapter 19
01:34:57.775 : en:Chapter 20
01:39:57.658 : en:Chapter 21





She Kills (2016)


She Kills (2016)


She Kills (2016)


She Kills (2016)


She Kills (2016)