Tags
Language
Tags

Sex Next Door (2020)

Posted By: notbanned
1080p (FullHD) / HDTV IMDb
Sex Next Door (2020)

Sex Next Door (2020)
HDTV | 1920x1080 | .MKV/AVC @ 3720 Kbps | 8x~10min | 1.83 GiB
Audio: English AAC 64 kbps, 2 channels | Subs: English, Español
Genre: Documentary

Following four sex workers in Seattle, Sex Next Door is a documentary with unprecedented, uncensored access into the sex work industry. The series pulls back the curtain on an often stigmatized profession, resulting in a candid, surprising glimpse into its workers' relationships with family, clients, and partners.

General
Unique ID : 137198976577597652237106618263240150524 (0x67378FCDBC01B8F45D2F06D32F138DFC)
Complete name : Six.Next.Door.S01E01.1080p.mkv
Format : Matroska
Format version : Version 4 / Version 2
File size : 232 MiB
Duration : 8 min 33 s
Overall bit rate : 3 786 kb/s

Video
ID : 1
Format : AVC
Format/Info : Advanced Video Codec
Format profile : High@L4
Format settings, CABAC : Yes
Format settings, ReFrames : 4 frames
Codec ID : V_MPEG4/ISO/AVC
Duration : 8 min 33 s
Bit rate : 3 720 kb/s
Width : 1 920 pixels
Height : 1 080 pixels
Display aspect ratio : 16:9
Frame rate mode : Constant
Frame rate : 23.976 (24000/1001) FPS
Color space : YUV
Chroma subsampling : 4:2:0
Bit depth : 8 bits
Scan type : Progressive
Bits/(Pixel*Frame) : 0.075
Stream size : 228 MiB (98%)
Default : Yes
Forced : No

Audio
ID : 2
Format : AAC
Format/Info : Advanced Audio Codec
Format profile : HE-AAC / LC
Codec ID : A_AAC
Duration : 8 min 33 s
Bit rate : 64.0 kb/s
Channel(s) : 2 channels
Channel positions : Front: L R
Sampling rate : 48.0 kHz / 24.0 kHz
Frame rate : 23.438 FPS (1024 spf)
Compression mode : Lossy
Stream size : 3.92 MiB (2%)
Language : English
Default : Yes
Forced : No

Text #1
ID : 3
Format : UTF-8
Codec ID : S_TEXT/UTF8
Codec ID/Info : UTF-8 Plain Text
Duration : 8 min 27 s
Bit rate : 104 b/s
Count of elements : 144
Stream size : 6.45 KiB (0%)
Language : English
Default : No
Forced : No

Text #2
ID : 4
Format : UTF-8
Codec ID : S_TEXT/UTF8
Codec ID/Info : UTF-8 Plain Text
Duration : 8 min 29 s
Bit rate : 110 b/s
Count of elements : 164
Stream size : 6.84 KiB (0%)
Title : SDH
Language : English
Default : No
Forced : No

Text #3
ID : 5
Format : UTF-8
Codec ID : S_TEXT/UTF8
Codec ID/Info : UTF-8 Plain Text
Duration : 8 min 27 s
Bit rate : 111 b/s
Count of elements : 165
Stream size : 6.92 KiB (0%)
Language : Spanish
Default : No
Forced : No


Screenshots:

Sex Next Door (2020)

Sex Next Door (2020)

Sex Next Door (2020)

Sex Next Door (2020)