Tags
Language
Tags

The Babymakers (2012)

Posted By: Tavaz
1080p (FullHD) / BDRip IMDb
The Babymakers (2012)

The Babymakers (2012)
BDRip | MKV | 1920x800 | English | H264 @ 9179 kbps | AC-3 @ 640 kbps | 1 h 35 min | 6.55 GiB
Subtitles: English
Genre: Comedy

After he flunks a fertility test, a man realizes that the only way he can get his wife pregnant is by robbing a sperm bank to take back the last of the deposits he made there years earlier.

9d1a0cd8d13da29b25f8589d6297575c.mkv (6.6 GB)



General
Complete name : ./9d1a0cd8d13da29b25f8589d6297575c.mkv
Format : Matroska
Format version : Version 2
File size : 6.55 GiB
Duration : 1 h 35 min
Overall bit rate : 9 816 kb/s
Encoded date : UTC 2012-09-19 11:07:23
Writing application : mkvmerge v5.7.0 ('The Whirlwind') built on Jul 8 2012 20:08:51
Writing library : libebml v1.2.3 + libmatroska v1.3.0

Video
ID : 1
Format : AVC
Format/Info : Advanced Video Codec
Format profile : High@L4.1
Format settings : CABAC / 5 Ref Frames
Format settings, CABAC : Yes
Format settings, RefFrames : 5 frames
Codec ID : V_MPEG4/ISO/AVC
Duration : 1 h 35 min
Bit rate : 9 179 kb/s
Width : 1 920 pixels
Height : 800 pixels
Display aspect ratio : 2.40:1
Frame rate mode : Constant
Frame rate : 23.976 (24000/1001) FPS
Color space : YUV
Chroma subsampling : 4:2:0
Bit depth : 8 bits
Scan type : Progressive
Bits/(Pixel*Frame) : 0.249
Stream size : 6.00 GiB (91%)
Writing library : x264 core 128 r2216 198a7ea
Encoding settings : cabac=1 / ref=5 / deblock=1:0:0 / analyse=0x3:0x133 / me=umh / subme=7 / psy=1 / psy_rd=1.00:0.00 / mixed_ref=1 / me_range=16 / chroma_me=1 / trellis=1 / 8x8dct=1 / cqm=0 / deadzone=21,11 / fast_pskip=0 / chroma_qp_offset=-2 / threads=12 / lookahead_threads=2 / sliced_threads=0 / nr=0 / decimate=1 / interlaced=0 / bluray_compat=0 / constrained_intra=0 / bframes=3 / b_pyramid=2 / b_adapt=2 / b_bias=0 / direct=3 / weightb=1 / open_gop=0 / weightp=2 / keyint=250 / keyint_min=23 / scenecut=40 / intra_refresh=0 / rc_lookahead=50 / rc=2pass / mbtree=1 / bitrate=9179 / ratetol=1.0 / qcomp=0.60 / qpmin=0 / qpmax=69 / qpstep=4 / cplxblur=20.0 / qblur=0.5 / ip_ratio=1.40 / aq=1:1.00
Language : English
Default : Yes
Forced : No

Audio
ID : 2
Format : AC-3
Format/Info : Audio Coding 3
Format settings, Endianness : Big
Codec ID : A_AC3
Duration : 1 h 35 min
Bit rate mode : Constant
Bit rate : 640 kb/s
Channel(s) : 6 channels
Channel positions : Front: L C R, Side: L R, LFE
Sampling rate : 48.0 kHz
Frame rate : 31.250 FPS (1536 SPF)
Bit depth : 16 bits
Compression mode : Lossy
Stream size : 438 MiB (7%)
Language : English
Service kind : Complete Main
Default : Yes
Forced : No

Text
ID : 3
Format : UTF-8
Codec ID : S_TEXT/UTF8
Codec ID/Info : UTF-8 Plain Text
Language : English
Default : Yes
Forced : No

Menu
00:00:00.000 : en:00:00:00.000
00:08:22.752 : en:00:08:22.752
00:15:57.165 : en:00:15:57.165
00:21:01.719 : en:00:21:01.719
00:26:29.671 : en:00:26:29.671
00:34:51.214 : en:00:34:51.214
00:42:06.065 : en:00:42:06.065
00:48:38.499 : en:00:48:38.499
00:57:48.757 : en:00:57:48.757
01:08:47.832 : en:01:08:47.832
01:18:50.392 : en:01:18:50.392
01:30:26.254 : en:01:30:26.254





Life is Trichy: Memoir of a mental health therapist with a mental health disorder


Life is Trichy: Memoir of a mental health therapist with a mental health disorder


Life is Trichy: Memoir of a mental health therapist with a mental health disorder


Life is Trichy: Memoir of a mental health therapist with a mental health disorder


Life is Trichy: Memoir of a mental health therapist with a mental health disorder