Grateful Dead - Saint of Circumstance Giants Stadium, East Rutherford, NJ 6-17-91 (Live) (2019) Official Digital Download 24/96

Posted By: Pisulik
Grateful Dead - Saint of Circumstance Giants Stadium, East Rutherford, NJ 6-17-91 (Live) (2019) Official Digital Download 24/96

Grateful Dead - Saint of Circumstance: Giants Stadium, East Rutherford, NJ 6-17-91 (Live) (2019)
FLAC (tracks) 24-bit/96 kHz | Time - 163:13 minutes | 3,42 GB
Studio Master, Official Digital Download | Artwork: Front cover

Widely considered one of the most exciting, inspired, and greatest shows of the Dead's final decade of performing. Featuring beloved classics such as 'Truckin' and 'Uncle John's Band' as well as rarities including 'Saint of Circumstance' the recurrence of 'Dark Star' which was woven in and out of the set list throughout the show.

Tracklist:

01. Eyes of the World (Live at Giants Stadium, East Rutherford, NJ, 6/17/91)
02. Walkin' Blues (Live at Giants Stadium, East Rutherford, NJ, 6/17/91)
03. Brown-Eyed Women (Live at Giants Stadium, East Rutherford, NJ, 6/17/91)
04. Dark Star (Pt. 1) [Live at Giants Stadium, East Rutherford, NJ, 6/17/91]
05. When I Paint My Masterpiece (Live at Giants Stadium, East Rutherford, NJ, 6/17/91)
06. Loose Lucy (Live at Giants Stadium, East Rutherford, NJ, 6/17/91)
07. Cassidy (Live at Giants Stadium, East Rutherford, NJ, 6/17/91)
08. Might as Well (Live at Giants Stadium, East Rutherford, NJ, 6/17/91)
09. Saint of Circumstance (Live at Giants Stadium, East Rutherford, NJ, 6/17/91)
10. Ship of Fools (Live at Giants Stadium, East Rutherford, NJ, 6/17/91)
11. Dark Star (Pt. 2) [Live at Giants Stadium, East Rutherford, NJ, 6/17/91]
12. Truckin' (Live at Giants Stadium, East Rutherford, NJ, 6/17/91)
13. New Speedway Boogie (Live at Giants Stadium, East Rutherford, NJ, 6/17/91)
14. Dark Star (Pt. 3) [Live at Giants Stadium, East Rutherford, NJ, 6/17/91]
15. Uncle John's Band (Live at Giants Stadium, East Rutherford, NJ, 6/17/91)
16. Dark Star (Pt. 4) [Live at Giants Stadium, East Rutherford, NJ, 6/17/91]
17. Drums (Live at Giants Stadium, East Rutherford, NJ, 6/17/91)
18. Space (Live at Giants Stadium, East Rutherford, NJ, 6/17/91)
19. China Doll (Live at Giants Stadium, East Rutherford, NJ, 6/17/91)
20. Playing in the Band (Live at Giants Stadium, East Rutherford, NJ, 6/17/91)
21. Sugar Magnolia (Live at Giants Stadium, East Rutherford, NJ, 6/17/91)
22. The Weight (Live at Giants Stadium, East Rutherford, NJ, 6/17/91)

foobar2000 1.3.7 / Dynamic Range Meter 1.1.1
log date: 2019-09-27 02:16:04

––––––––––––––––––––––––––––––––––––––––
Analyzed: Grateful Dead / Saint of Circumstance: Giants Stadium, East Rutherford, NJ 6/17/91 (Live)
––––––––––––––––––––––––––––––––––––––––

DR Peak RMS Duration Track
––––––––––––––––––––––––––––––––––––––––
DR12 -0.28 dB -13.95 dB 15:26 01-Eyes of the World (Live at Giants Stadium, East Rutherford, NJ, 6/17/91)
DR11 -0.28 dB -14.14 dB 7:02 02-Walkin' Blues (Live at Giants Stadium, East Rutherford, NJ, 6/17/91)
DR11 -0.29 dB -12.73 dB 6:11 03-Brown-Eyed Women (Live at Giants Stadium, East Rutherford, NJ, 6/17/91)
DR11 -0.52 dB -15.93 dB 1:33 04-Dark Star (Pt. 1) (Live at Giants Stadium, East Rutherford, NJ, 6/17/91)
DR11 -0.36 dB -13.62 dB 5:28 05-When I Paint My Masterpiece (Live at Giants Stadium, East Rutherford, NJ, 6/17/91)
DR10 0.00 dB -12.50 dB 9:16 06-Loose Lucy (Live at Giants Stadium, East Rutherford, NJ, 6/17/91)
DR10 -0.44 dB -12.83 dB 7:12 07-Cassidy (Live at Giants Stadium, East Rutherford, NJ, 6/17/91)
DR9 -0.07 dB -11.22 dB 6:43 08-Might as Well (Live at Giants Stadium, East Rutherford, NJ, 6/17/91)
DR10 -0.04 dB -13.41 dB 10:56 09-Saint of Circumstance (Live at Giants Stadium, East Rutherford, NJ, 6/17/91)
DR11 -0.22 dB -13.63 dB 8:01 10-Ship of Fools (Live at Giants Stadium, East Rutherford, NJ, 6/17/91)
DR13 -0.45 dB -16.20 dB 1:14 11-Dark Star (Pt. 2) (Live at Giants Stadium, East Rutherford, NJ, 6/17/91)
DR10 -0.30 dB -12.73 dB 6:55 12-Truckin' (Live at Giants Stadium, East Rutherford, NJ, 6/17/91)
DR11 -0.31 dB -13.90 dB 9:12 13-New Speedway Boogie (Live at Giants Stadium, East Rutherford, NJ, 6/17/91)
DR13 -0.50 dB -17.23 dB 0:56 14-Dark Star (Pt. 3) (Live at Giants Stadium, East Rutherford, NJ, 6/17/91)
DR12 -0.20 dB -14.05 dB 11:19 15-Uncle John's Band (Live at Giants Stadium, East Rutherford, NJ, 6/17/91)
DR11 -0.35 dB -12.95 dB 8:06 16-Dark Star (Pt. 4) (Live at Giants Stadium, East Rutherford, NJ, 6/17/91)
DR14 -0.21 dB -19.40 dB 12:14 17-Drums (Live at Giants Stadium, East Rutherford, NJ, 6/17/91)
DR12 -0.28 dB -15.18 dB 8:35 18-Space (Live at Giants Stadium, East Rutherford, NJ, 6/17/91)
DR11 -0.24 dB -15.12 dB 5:08 19-China Doll (Live at Giants Stadium, East Rutherford, NJ, 6/17/91)
DR10 -0.45 dB -13.93 dB 4:35 20-Playing in the Band (Live at Giants Stadium, East Rutherford, NJ, 6/17/91)
DR9 -0.15 dB -12.54 dB 10:53 21-Sugar Magnolia (Live at Giants Stadium, East Rutherford, NJ, 6/17/91)
DR12 -0.17 dB -14.49 dB 6:21 22-The Weight (Live at Giants Stadium, East Rutherford, NJ, 6/17/91)
––––––––––––––––––––––––––––––––––––––––

Number of tracks: 22
Official DR value: DR11

Samplerate: 96000 Hz
Channels: 2
Bits per sample: 24
Bitrate: 2924 kbps
Codec: FLAC
================================================================================


All thanks go to the original releaser