Jonathan Biss - The Complete Beethoven Piano Sonatas, Vol. 1-3 (2020) [Official Digital Download 24/96]

Posted By: pyatak
Jonathan Biss - The Complete Beethoven Piano Sonatas, Vol. 1-3 (2020) [Official Digital Download 24/96]

Jonathan Biss - The Complete Beethoven Piano Sonatas, Vol. 1-3 (2020) [Official Digital Download 24/96]
FLAC (tracks) 24-bit/96 kHz | Front Cover | Time - 03:25:55 minutes | 3,05 GB
Classical | Label: Orchid Classics, Official Digital Download

Pianist Jonathan Biss launched his career in the late 1990s with appearances as a soloist with the Baltimore Symphony and several other prominent national ensembles. While he has generally favored standard-repertory works, he has ventured into contemporary works with compositions by John Corigliano, Leon Kirchner, and others. Biss was born on September 18, 1980, in Bloomington, Indiana. He comes from a distinguished family of string players: his grandmother was Raya Garbousova, the cellist who inspired Samuel Barber to compose his Cello Concerto, his mother is the well-known violinist Miriam Fried, and his father is violinist/violist Paul Biss. Young Jonathan took his first piano lessons at the age of 6 from teacher Karen Taylor. At age 11, he began studies at Indiana University with Evelyne Brancart, and then three years later, won the concerto competitions held by the Indianapolis and Bloomington Symphony Orchestras, two ensembles with whom Biss then appeared in performances of the Mendelssohn G minor Piano Concerto.

TRACKLIST

The Complete Beethoven Piano Sonatas, Vol. 1
01. Piano Sonata No. 5 in C Minor, Op. 10 No. 1 "Little Pathetique": I. Allegro molto e con brio
02. Piano Sonata No. 5 in C Minor, Op. 10 No. 1 "Little Pathetique": II. Adagio molto
03. Piano Sonata No. 5 in C Minor, Op. 10 No. 1 "Little Pathetique": III. Prestissimo
04. Piano Sonata No. 11 in B-Flat Major, Op. 22: I. Allegro con brio
05. Piano Sonata No. 11 in B-Flat Major, Op. 22: II. Adagio con molto espressione
06. Piano Sonata No. 11 in B-Flat Major, Op. 22: III. Menuetto
07. Piano Sonata No. 11 in B-Flat Major, Op. 22: IV. Rondo. Allegretto
08. Piano Sonata No. 12 in A-Flat Major, Op. 26 "Funeral March": I. Andante con variazioni
09. Piano Sonata No. 12 in A-Flat Major, Op. 26 "Funeral March": II. Scherzo. Allegro molto
10. Piano Sonata No. 12 in A-Flat Major, Op. 26 "Funeral March": III. Maestoso andante. Marcia funebre sulla morte d'un eroe
11. Piano Sonata No. 12 in A-Flat Major, Op. 26 "Funeral March": IV. Allegro
12. Piano Sonata No. 26 in E-flat Major, Op. 81a "Les Adieux": I. Das Lebewohl. Adagio - Allegro
13. Piano Sonata No. 26 in E-flat Major, Op. 81a "Les Adieux": II. Abwesenheit. Andante espressivo
14. Piano Sonata No. 26 in E-flat Major, Op. 81a "Les Adieux": III. Das Wiedersehen. Vivacissimamente

The Complete Beethoven Piano Sonatas, Vol. 2
01. Piano Sonata No. 4 in E-Flat Major, Op. 7 "Grand": I. Allegro molto e con brio
02. Piano Sonata No. 4 in E-Flat Major, Op. 7 "Grand": II. Largo, con gran espressione
03. Piano Sonata No. 4 in E-Flat Major, Op. 7 "Grand": III. Allegro
04. Piano Sonata No. 4 in E-Flat Major, Op. 7 "Grand": IV. Rondo. Poco allegretto e grazioso
05. Piano Sonata No. 14 in C-sharp Minor, Op. 27 No. 2 "Moonlight": I. Adagio sostenuto
06. Piano Sonata No. 14 in C-sharp Minor, Op. 27 No. 2 "Moonlight": II. Allegretto
07. Piano Sonata No. 14 in C-sharp Minor, Op. 27 No. 2 "Moonlight": III. Presto agitato
08. Fantasia in G minor, Op. 77: Fantasia in G Minor, Op. 77
09. Piano Sonata No. 24 in F-Sharp Minor, Op. 78 "A Thérèse": I. Adagio cantabile - Allegro ma non troppo
10. Piano Sonata No. 24 in F-Sharp Minor, Op. 78 "A Thérèse": II. Allegro vivace

The Complete Beethoven Piano Sonatas, Vol. 3
01. Piano Sonata No. 15 in D Major, Op. 28 "Pastoral": I. Allegro
02. Piano Sonata No. 15 in D Major, Op. 28 "Pastoral": II. Andante
03. Piano Sonata No. 15 in D Major, Op. 28 "Pastoral": III. Scherzo. Allegro vivace
04. Piano Sonata No. 15 in D Major, Op. 28 "Pastoral": IV. Rondo. Allegro ma non troppo
05. Piano Sonata No. 16 in G major, Op. 31 No. 1: I. Allegro vivace
06. Piano Sonata No. 16 in G major, Op. 31 No. 1: II. Adagio grazioso
07. Piano Sonata No. 16 in G major, Op. 31 No. 1: III. Rondo. Allegretto
08. Piano Sonata No. 21 in C major, Op. 53 "Waldstein": I. Allegro con brio
09. Piano Sonata No. 21 in C major, Op. 53 "Waldstein": II. Introduzione. Adagio molto
10. Piano Sonata No. 21 in C major, Op. 53 "Waldstein": III. Rondo. Allegretto moderato - Prestissimo

foobar2000 1.3.16 / Dynamic Range Meter 1.1.1
log date: 2020-09-06 07:55:17

––––––––––––––––––––––––––––––––––––––––
Analyzed: Jonathan Biss / The Complete Beethoven Piano Sonatas, Vol. 1
––––––––––––––––––––––––––––––––––––––––

DR Peak RMS Duration Track
––––––––––––––––––––––––––––––––––––––––
DR15 -1.69 dB -20.49 dB 5:18 01-I. Allegro molto e con brio
DR17 -2.99 dB -26.12 dB 7:23 02-II. Adagio molto
DR15 -0.10 dB -19.77 dB 4:16 03-III. Prestissimo
DR15 -0.61 dB -19.88 dB 7:24 04-I. Allegro con brio
DR14 -5.03 dB -26.58 dB 6:37 05-II. Adagio con molto espressione
DR15 -1.29 dB -21.33 dB 3:12 06-III. Menuetto
DR15 -1.55 dB -21.63 dB 6:30 07-IV. Rondo. Allegretto
DR14 -6.18 dB -24.08 dB 6:56 08-I. Andante con variazioni
DR15 -0.97 dB -22.06 dB 2:37 09-II. Scherzo. Allegro molto
DR14 -1.10 dB -20.25 dB 5:20 10-III. Maestoso andante. Marcia funebre sulla morte d'un eroe
DR14 -1.05 dB -20.86 dB 2:58 11-IV. Allegro
DR16 -0.10 dB -22.47 dB 6:53 12-I. Das Lebewohl. Adagio - Allegro
DR15 -2.81 dB -25.93 dB 3:09 13-II. Abwesenheit. Andante espressivo
DR13 -1.53 dB -19.32 dB 5:35 14-III. Das Wiedersehen. Vivacissimamente
––––––––––––––––––––––––––––––––––––––––

Number of tracks: 14
Official DR value: DR15

Samplerate: 96000 Hz
Channels: 2
Bits per sample: 24
Bitrate: 2176 kbps
Codec: FLAC
================================================================================

foobar2000 1.3.16 / Dynamic Range Meter 1.1.1
log date: 2020-09-06 07:55:54

––––––––––––––––––––––––––––––––––––––––
Analyzed: Jonathan Biss / The Complete Beethoven Piano Sonatas, Vol. 2
––––––––––––––––––––––––––––––––––––––––

DR Peak RMS Duration Track
––––––––––––––––––––––––––––––––––––––––
DR15 -0.16 dB -19.78 dB 7:45 01-I. Allegro molto e con brio
DR16 -3.73 dB -25.90 dB 8:11 02-II. Largo, con gran espressione
DR14 -2.38 dB -22.20 dB 5:08 03-III. Allegro
DR14 -1.87 dB -21.40 dB 6:56 04-IV. Rondo. Poco allegretto e grazioso
DR15 -12.86 dB -33.21 dB 5:08 05-I. Adagio sostenuto
DR14 -6.20 dB -25.16 dB 2:06 06-II. Allegretto
DR14 -1.77 dB -19.25 dB 7:17 07-III. Presto agitato
DR15 -1.11 dB -21.86 dB 9:09 08-Fantasia in G Minor, Op. 77
DR16 -0.33 dB -22.52 dB 7:04 09-I. Adagio cantabile - Allegro ma non troppo
DR14 -2.33 dB -21.69 dB 2:39 10-II. Allegro vivace
––––––––––––––––––––––––––––––––––––––––

Number of tracks: 10
Official DR value: DR15

Samplerate: 96000 Hz
Channels: 2
Bits per sample: 24
Bitrate: 2133 kbps
Codec: FLAC
================================================================================

foobar2000 1.3.16 / Dynamic Range Meter 1.1.1
log date: 2020-09-06 07:57:39

––––––––––––––––––––––––––––––––––––––––
Analyzed: Jonathan Biss / The Complete Beethoven Piano Sonatas, Vol. 3
––––––––––––––––––––––––––––––––––––––––

DR Peak RMS Duration Track
––––––––––––––––––––––––––––––––––––––––
DR14 -2.35 dB -22.35 dB 9:15 01-I. Allegro
DR15 -4.22 dB -25.10 dB 6:20 02-II. Andante
DR15 -3.70 dB -24.01 dB 2:20 03-III. Scherzo. Allegro vivace
DR14 -2.47 dB -22.07 dB 4:58 04-IV. Rondo. Allegro ma non troppo
DR14 -2.29 dB -20.96 dB 6:23 05-I. Allegro vivace
DR15 -6.48 dB -26.38 dB 10:09 06-II. Adagio grazioso
DR14 -4.10 dB -22.56 dB 6:29 07-III. Rondo. Allegretto
DR14 -1.27 dB -20.95 dB 10:40 08-I. Allegro con brio
DR14 -8.02 dB -29.25 dB 3:50 09-II. Introduzione. Adagio molto
DR15 -0.53 dB -20.09 dB 10:00 10-III. Rondo. Allegretto moderato - Prestissimo
––––––––––––––––––––––––––––––––––––––––

Number of tracks: 10
Official DR value: DR14

Samplerate: 96000 Hz
Channels: 2
Bits per sample: 24
Bitrate: 2193 kbps
Codec: FLAC
================================================================================



Thanks to the Original customer.