María Isabel - Stuck in the Sky (2020) [Official Digital Download]

Posted By: pyatak
María Isabel - Stuck in the Sky (2020) [Official Digital Download]

María Isabel - Stuck in the Sky (2020) [Official Digital Download]
FLAC (tracks) 24-bit/44.1 kHz | Front Cover | Time - 16:52 minutes | 181 MB
R&B | Label: Maria Isabel, Official Digital Download

María Isabel’s tender voice and sterling poetics are enough to make the coldest of hearts melt. The 24-year-old, LA-based singer-songwriter’s debut EP, Stuck In The Sky, out October 16, is a rumination on a long-distance relationship, love, loss, and the pains we go through for romance. The EP is steeped in the universality of teetering on heartbreak, but going back in for one more taste of a lover we can see but cannot touch. Single “The 1” coils around the listener, the silky nature of María’s vocal coming across as a satisfied purr. Stuck In The Sky’s will-they-won’t-they narrative spins a timeless tale in just 16 minutes.

TRACKLIST

1. María Isabel - The 1
2. María Isabel - Where Does The Love Go?
3. María Isabel - Distance
4. María Isabel - Light Your Way Home (Interlude)
5. María Isabel - Stuck in the Sky
6. María Isabel - Salt Water
7. María Isabel - A Game I Lose

foobar2000 1.3.16 / Dynamic Range Meter 1.1.1
log date: 2020-10-18 17:05:48

––––––––––––––––––––––––––––––––––––––––
Analyzed: María Isabel / Stuck in the Sky
––––––––––––––––––––––––––––––––––––––––

DR Peak RMS Duration Track
––––––––––––––––––––––––––––––––––––––––
DR5 -0.10 dB -7.44 dB 2:57 01-The 1
DR6 0.00 dB -8.41 dB 2:56 02-Where Does The Love Go?
DR5 -0.21 dB -8.41 dB 2:39 03-Distance
DR12 -0.23 dB -13.97 dB 0:30 04-Light Your Way Home (Interlude)
DR5 -0.22 dB -8.43 dB 2:15 05-Stuck in the Sky
DR7 0.00 dB -8.15 dB 3:00 06-Salt Water
DR8 0.00 dB -9.59 dB 2:37 07-A Game I Lose
––––––––––––––––––––––––––––––––––––––––

Number of tracks: 7
Official DR value: DR7

Samplerate: 44100 Hz
Channels: 2
Bits per sample: 24
Bitrate: 1483 kbps
Codec: FLAC
================================================================================



Thanks to the Original customer.
R&B