Piano Dreamers - Piano Dreamers Play Taylor Swift, Vol. 2 (2020) [Official Digital Download]

Posted By: pyatak
Piano Dreamers - Piano Dreamers Play Taylor Swift, Vol. 2 (2020) [Official Digital Download]

Piano Dreamers - Piano Dreamers Play Taylor Swift, Vol. 2 (2020) [Official Digital Download]
FLAC (tracks) 24-bit/44.1 kHz | Front Cover | Time - 55:03 minutes | 467 MB
Instrumental | Label: CC Entertainment, Official Digital Download

Piano Dreamers present an instrumental version of Taylor Swift's latest album "folklore".

TRACKLIST

1. Piano Dreamers - Exile (Instrumental)
2. Piano Dreamers - Cardigan (Instrumental)
3. Piano Dreamers - The 1 (Instrumental)
4. Piano Dreamers - Betty (Instrumental)
5. Piano Dreamers - August (Instrumental)
6. Piano Dreamers - The Last Great American Dynasty (Instrumental)
7. Piano Dreamers - Invisible String (Instrumental)
8. Piano Dreamers - My Tears Ricochet (Instrumental)
9. Piano Dreamers - Mad Woman (Instrumental)
10. Piano Dreamers - This is Me Trying (Instrumental)
11. Piano Dreamers - Illicit Affairs (Instrumental)
12. Piano Dreamers - Seven (Instrumental)
13. Piano Dreamers - Mirrorball (Instrumental)
14. Piano Dreamers - Epiphany (Instrumental)
15. Piano Dreamers - Peace (Instrumental)
16. Piano Dreamers - Hoax (Instrumental)

foobar2000 1.3.16 / Dynamic Range Meter 1.1.1
log date: 2020-10-18 12:44:27

––––––––––––––––––––––––––––––––––––––––
Analyzed: Piano Dreamers / Piano Dreamers Play Taylor Swift, Vol. 2
––––––––––––––––––––––––––––––––––––––––

DR Peak RMS Duration Track
––––––––––––––––––––––––––––––––––––––––
DR10 -1.00 dB -13.40 dB 3:56 01-Exile (Instrumental)
DR10 -1.00 dB -13.42 dB 2:45 02-Cardigan (Instrumental)
DR9 -1.00 dB -13.42 dB 3:13 03-The 1 (Instrumental)
DR10 -1.00 dB -13.43 dB 3:37 04-Betty (Instrumental)
DR10 -1.00 dB -13.40 dB 3:14 05-August (Instrumental)
DR10 -1.00 dB -13.42 dB 3:37 06-The Last Great American Dynasty (Instrumental)
DR10 -1.00 dB -13.41 dB 3:40 07-Invisible String (Instrumental)
DR9 -1.00 dB -13.39 dB 4:06 08-My Tears Ricochet (Instrumental)
DR10 -1.00 dB -13.42 dB 3:28 09-Mad Woman (Instrumental)
DR10 -1.00 dB -13.40 dB 3:05 10-This is Me Trying (Instrumental)
DR9 -1.00 dB -13.44 dB 3:20 11-Illicit Affairs (Instrumental)
DR10 -1.00 dB -13.38 dB 3:45 12-Seven (Instrumental)
DR10 -1.00 dB -13.39 dB 3:20 13-Mirrorball (Instrumental)
DR10 -1.00 dB -13.44 dB 3:16 14-Epiphany (Instrumental)
DR10 -1.00 dB -13.38 dB 3:26 15-Peace (Instrumental)
DR10 -1.00 dB -13.45 dB 3:15 16-Hoax (Instrumental)
––––––––––––––––––––––––––––––––––––––––

Number of tracks: 16
Official DR value: DR10

Samplerate: 44100 Hz
Channels: 2
Bits per sample: 24
Bitrate: 1141 kbps
Codec: FLAC
================================================================================



Thanks to the Original customer.