Gloria Estefan - Greatest Hits (1992) [Reissue 2002] PS3 ISO + Hi-Res FLAC

Posted By: HDAtall
Gloria Estefan - Greatest Hits (1992) [Reissue 2002]  PS3 ISO + Hi-Res FLAC

Gloria Estefan - Greatest Hits (1992) [Reissue 2002]
PS3 Rip | SACD ISO | DST64 2.0 & 5.1 > 1-bit/2.8224 MHz | 58:34 minutes | Full Scans included | 3,89 GB
or FLAC 2.0 Stereo (converted with foobar2000 to tracks) 24bit/88,2 kHz | 58:46 min | Scans| 1,22 GB
Features Stereo & Multichannel Surround Sound

In 1984, Gloria Estefan started off as the lead singer of Miami Sound Machine. By 1987, after scoring four big hits from their first major U.S. album, they became Gloria Estefan and Miami Sound Machine, and by 1989, after even bigger success, it was simply Gloria Estefan. This greatest-hits collection covers the years 1985 to 1992, featuring most of the pop confections that propelled her to the top of the charts and to international stardom. Among the hits included are her three number ones: "Anything for You," "Coming Out of the Dark," and "Don't Wanna Lose You," as well as other Top Ten hits including "Conga," "Words Get in the Way," "Rhythm Is Gonna Get You," "Can't Stay Away from You," "Here We Are," and the single mix of "1-2-3." There are a few glaring omissions, however. "Bad Boy," her second Top Ten hit, was left off, and that is unfortunate because the hit version was a remix of the original album version and is extremely difficult to find on CD. Other omissions include "Dr. Beat," "Falling in Love (Uh-Oh)," "Oye Mi Canto," "Live for Loving You," and "Can't Forget You." To round off the set are four new recordings, including the album's first single, "Always Tomorrow," the Jon Secada-penned "I See Your Smile," the irresistible Latin-flavored dance track "Go Away," and the semi-tepid holiday tune "Christmas Through Your Eyes." This is a good collection from a great artist that could have been a great collection had they included all the hits.

Tracklist:

01. Conga
02. Words Get In The Way
03. Can't Stay Away From You
04. 1,2,3
05. Rhythm Is Gonna Get You
06. Anything For You
07. Here We Are
08. Get On Your Feet
09. Don't Wanna Lose You
10. Coming Out Of The Dark
11. Christmas Through Your Eyes
12. I See Your Smile
13. Go Away
14. Always Tomorrow

foobar2000 1.6.1 / Dynamic Range Meter 1.1.1

––––––––––––––––––––––––––––––––––––––––
Analyzed: GLORIA ESTEFAN / GREATEST HITS
––––––––––––––––––––––––––––––––––––––––

DR Peak RMS Duration Track
––––––––––––––––––––––––––––––––––––––––
DR11 -5.70 dB -20.59 dB 4:15 01-Conga
DR12 -6.38 dB -21.56 dB 3:26 02-Words Get In The Way
DR13 -6.24 dB -22.90 dB 3:56 03-Can't Stay Away From You
DR13 -6.09 dB -21.87 dB 3:34 04-1,2,3
DR11 -6.21 dB -20.64 dB 3:57 05-Rhythm Is Gonna Get You
DR13 -6.22 dB -23.97 dB 4:02 06-Anything For You
DR12 -6.42 dB -22.05 dB 4:54 07-Here We Are
DR12 -6.20 dB -20.88 dB 3:37 08-Get On Your Feet
DR12 -6.32 dB -22.56 dB 4:07 09-Don't Wanna Lose You
DR12 -6.40 dB -21.95 dB 4:03 10-Coming Out Of The Dark
DR11 -6.42 dB -20.34 dB 4:53 11-Christmas Through Your Eyes
DR11 -6.10 dB -20.35 dB 4:36 12-I See Your Smile
DR10 -6.22 dB -19.09 dB 4:17 13-Go Away
DR11 -6.55 dB -21.75 dB 4:55 14-Always Tomorrow
––––––––––––––––––––––––––––––––––––––––

Number of tracks: 14
Official DR value: DR12

Samplerate: 2822400 Hz / PCM Samplerate: 88200 Hz
Channels: 6
Bits per sample: 1
Bitrate: 16934 kbps
Codec: DST64
================================================================================

––––––––––––––––––––––––––––––––––––––––
Analyzed: GLORIA ESTEFAN / GREATEST HITS
––––––––––––––––––––––––––––––––––––––––

DR Peak RMS Duration Track
––––––––––––––––––––––––––––––––––––––––
DR12 -5.99 dB -19.43 dB 4:15 01-Conga
DR11 -5.99 dB -19.40 dB 3:28 02-Words Get In The Way
DR13 -5.98 dB -21.99 dB 3:57 03-Can't Stay Away From You
DR13 -5.96 dB -20.18 dB 3:35 04-1,2,3
DR11 -5.98 dB -18.96 dB 3:57 05-Rhythm Is Gonna Get You
DR12 -6.00 dB -21.44 dB 4:03 06-Anything For You
DR13 -6.09 dB -21.59 dB 4:52 07-Here We Are
DR11 -5.95 dB -18.82 dB 3:40 08-Get On Your Feet
DR13 -5.99 dB -22.03 dB 4:11 09-Don't Wanna Lose You
DR11 -6.10 dB -21.36 dB 4:07 10-Coming Out Of The Dark
DR11 -5.99 dB -19.71 dB 4:55 11-Christmas Through Your Eyes
DR11 -5.95 dB -19.11 dB 4:36 12-I See Your Smile
DR10 -6.00 dB -17.15 dB 4:19 13-Go Away
DR11 -5.97 dB -19.89 dB 4:51 14-Always Tomorrow
––––––––––––––––––––––––––––––––––––––––

Number of tracks: 14
Official DR value: DR12

Samplerate: 2822400 Hz / PCM Samplerate: 88200 Hz
Channels: 2
Bits per sample: 1
Bitrate: 5645 kbps
Codec: DST64


Thanks to PS³SACD!
Uncompressed SACD ISO size > 3,68 GB
>