Featured TV Shows


MacGyver S03E01

Posted By: Tavaz
SD / DVDRip IMDb
MacGyver S03E01

MacGyver S03E01
DVDRip | AVI | 576x432 | MP4V-ES @ 959 kbps | MPEG Audio @ 121 kbps | 44 min 31 s | 348 MiB
Genre: Drame

Agé d'une vingtaine d'années, MacGyver, qui possède un don unique pour la débrouille et des méthodes peu orthodoxes pour parvenir à ses fins, travaille pour le gouvernement au sein d'une organisation secrète dont le but est de sauver des vies.

Reboot de la série MacGyver des années 1980 avec Richard Dean Anderson.

MacGyver.S03E19.FRENCH.DVDRiP.XviD-KeDaL.avi (348.4 MB)
MacGyver.S03E12.FRENCH.DVDRiP.XviD-KeDaL.avi (348.4 MB)
MacGyver.S03E04.FRENCH.DVDRiP.XviD-KeDaL.avi (348.4 MB)
MacGyver.S03E13.FRENCH.DVDRiP.XviD-KeDaL.avi (348.4 MB)
MacGyver.S03E05.FRENCH.DVDRiP.XviD-KeDaL.avi (348.4 MB)
MacGyver.S03E10.FRENCH.DVDRiP.XviD-KeDaL.avi (348.4 MB)
MacGyver.S03E03.FRENCH.DVDRiP.XviD-KeDaL.avi (348.4 MB)
MacGyver.S03E11.FRENCH.DVDRiP.XviD-KeDaL.avi (348.4 MB)
MacGyver.S03E08.FRENCH.DVDRiP.XviD-KeDaL.avi (348.4 MB)
MacGyver.S03E17.FRENCH.DVDRiP.XviD-KeDaL.avi (348.4 MB)
MacGyver.S03E09.FRENCH.DVDRiP.XviD-KeDaL.avi (348.4 MB)
MacGyver.S03E15.FRENCH.DVDRiP.XviD-KeDaL.avi (348.4 MB)
MacGyver.S03E14.FRENCH.DVDRiP.XviD-KeDaL.avi (348.4 MB)
MacGyver.S03E01.FRENCH.DVDRiP.XviD-KeDaL.avi (348.4 MB)
MacGyver.S03E18.FRENCH.DVDRiP.XviD-KeDaL.avi (348.4 MB)
MacGyver.S03E16.FRENCH.DVDRiP.XviD-KeDaL.avi (348.4 MB)
MacGyver.S03E07.FRENCH.DVDRiP.XviD-KeDaL.avi (348.4 MB)
MacGyver.S03E02.FRENCH.DVDRiP.XviD-KeDaL.avi (348.4 MB)
MacGyver.S03E20.FiNAL.FRENCH.DVDRiP.XviD-KeDaL.avi (348.4 MB)
MacGyver.S03E06.FRENCH.DVDRiP.XviD-KeDaL.avi (348.4 MB)



General
Complete name : ./MacGyver.S03E15.FRENCH.DVDRiP.XviD-KeDaL.avi
Format : AVI
Format/Info : Audio Video Interleave
File size : 348 MiB
Duration : 44 min 31 s
Overall bit rate mode : Variable
Overall bit rate : 1 094 kb/s
Writing application : VirtualDubMod 1.5.10.2 (build 2540/release)
Writing library : VirtualDubMod build 2540/release

Video
ID : 0
Format : MPEG-4 Visual
Format profile : Advanced Simple@L5
Format settings : BVOP2
Format settings, BVOP : 2
Format settings, QPel : No
Format settings, GMC : No warppoints
Format settings, Matrix : Default (H.263)
Muxing mode : Packed bitstream
Codec ID : XVID
Codec ID/Hint : XviD
Duration : 44 min 31 s
Bit rate : 959 kb/s
Width : 576 pixels
Height : 432 pixels
Display aspect ratio : 4:3
Frame rate : 25.000 FPS
Color space : YUV
Chroma subsampling : 4:2:0
Bit depth : 8 bits
Scan type : Progressive
Compression mode : Lossy
Bits/(Pixel*Frame) : 0.154
Stream size : 305 MiB (88%)
Writing library : XviD 1.1.0 (UTC 2005-11-22)

Audio
ID : 1
Format : MPEG Audio
Format version : Version 1
Format profile : Layer 3
Format settings : Joint stereo
Mode : Joint stereo
Codec ID : 55
Codec ID/Hint : MP3
Duration : 44 min 31 s
Bit rate mode : Variable
Bit rate : 122 kb/s
Nominal bit rate : 128 kb/s
Channel(s) : 2 channels
Sampling rate : 48.0 kHz
Compression mode : Lossy
Stream size : 38.8 MiB (11%)
Alignment : Aligned on interleaves
Interleave, duration : 24 ms (0.60 video frame)
Interleave, preload duration : 151 ms
Writing library : LAME3.90.
Encoding settings : -m j -V 4 -q 2 -lowpass 17.6 –abr 128





MacGyver S03E01


MacGyver S03E01


MacGyver S03E01


MacGyver S03E01


MacGyver S03E01

All episodes