Featured TV Shows


MacGyver S04E01

Posted By: Tavaz
SD / DVDRip IMDb
MacGyver S04E01

MacGyver S04E01
DVDRip | AVI | 576x432 | MP4V-ES @ 938 kbps | MPEG Audio @ 119 kbps | 45 min 29 s | 348 MiB
Genre: Drame

Agé d'une vingtaine d'années, MacGyver, qui possède un don unique pour la débrouille et des méthodes peu orthodoxes pour parvenir à ses fins, travaille pour le gouvernement au sein d'une organisation secrète dont le but est de sauver des vies.

Reboot de la série MacGyver des années 1980 avec Richard Dean Anderson.

Macgyver.S04E06.FRENCH.DVDRiP.XViD-PEPiTO.avi (348.3 MB)
Macgyver.S04E19.FiNAL.FRENCH.DVDRiP.XViD-PEPiTO.avi (347.8 MB)
Macgyver.S04E17.FRENCH.DVDRiP.XViD-PEPiTO.avi (348.3 MB)
Macgyver.S04E18.FRENCH.DVDRiP.XViD-PEPiTO.avi (348.3 MB)
Macgyver.S04E04.FRENCH.DVDRiP.XViD-PEPiTO.avi (347.9 MB)
Macgyver.S04E11.FRENCH.DVDRiP.XViD-PEPiTO.avi (348.3 MB)
Macgyver.S04E08.FRENCH.DVDRiP.XViD-PEPiTO.avi (348.4 MB)
Macgyver.S04E16.FRENCH.DVDRiP.XViD-PEPiTO.avi (348.3 MB)
Macgyver.S04E02.FRENCH.DVDRiP.XViD-PEPiTO.avi (348.3 MB)
Macgyver.S04E14.FRENCH.DVDRiP.XViD-PEPiTO.avi (348.3 MB)
Macgyver.S04E01.FRENCH.DVDRiP.XViD-PEPiTO.avi (348.3 MB)
Macgyver.S04E15.FRENCH.DVDRiP.XViD-PEPiTO.avi (347.8 MB)
Macgyver.S04E07.FRENCH.DVDRiP.XViD-PEPiTO.avi (348.3 MB)
Macgyver.S04E03.FRENCH.DVDRiP.XViD-PEPiTO.avi (348.4 MB)
Macgyver.S04E12.FRENCH.DVDRiP.XViD-PEPiTO.avi (348.3 MB)
Macgyver.S04E05.FRENCH.DVDRiP.XViD-PEPiTO.avi (348.4 MB)
Macgyver.S04E13.FRENCH.DVDRiP.XViD-PEPiTO.avi (348.3 MB)
Macgyver.S04E09.FRENCH.DVDRiP.XViD-PEPiTO.avi (348.3 MB)
Macgyver.S04E10.FRENCH.DVDRiP.XViD-PEPiTO.avi (348.3 MB)



General
Complete name : ./Macgyver.S04E03.FRENCH.DVDRiP.XViD-PEPiTO.avi
Format : AVI
Format/Info : Audio Video Interleave
File size : 348 MiB
Duration : 45 min 29 s
Overall bit rate mode : Variable
Overall bit rate : 1 071 kb/s
Writing application : VirtualDubMod 1.5.10.2 (build 2540/release)
Writing library : VirtualDubMod build 2540/release

Video
ID : 0
Format : MPEG-4 Visual
Format profile : Advanced Simple@L5
Format settings : BVOP2
Format settings, BVOP : 2
Format settings, QPel : No
Format settings, GMC : No warppoints
Format settings, Matrix : Default (H.263)
Codec ID : XVID
Codec ID/Hint : XviD
Duration : 45 min 29 s
Bit rate : 938 kb/s
Width : 576 pixels
Height : 432 pixels
Display aspect ratio : 4:3
Frame rate : 25.000 FPS
Color space : YUV
Chroma subsampling : 4:2:0
Bit depth : 8 bits
Scan type : Progressive
Compression mode : Lossy
Bits/(Pixel*Frame) : 0.151
Stream size : 305 MiB (88%)
Writing library : XviD 1.1.2 (UTC 2006-11-01)

Audio
ID : 1
Format : MPEG Audio
Format version : Version 1
Format profile : Layer 3
Format settings : Joint stereo / MS Stereo
Mode : Joint stereo
Mode extension : MS Stereo
Codec ID : 55
Codec ID/Hint : MP3
Duration : 45 min 29 s
Bit rate mode : Variable
Bit rate : 120 kb/s
Nominal bit rate : 128 kb/s
Channel(s) : 2 channels
Sampling rate : 48.0 kHz
Compression mode : Lossy
Stream size : 38.9 MiB (11%)
Alignment : Aligned on interleaves
Interleave, duration : 24 ms (0.60 video frame)
Interleave, preload duration : 153 ms
Writing library : LAME3.90.
Encoding settings : -m j -V 4 -q 2 -lowpass 17.6 –abr 128





MacGyver S04E01


MacGyver S04E01


MacGyver S04E01


MacGyver S04E01


MacGyver S04E01

All episodes