Daniel Weissmann & Peter Petrov - The Romantic Viola II (2020) [Official Digital Download 24/88]

Posted By: delpotro
Daniel Weissmann & Peter Petrov - The Romantic Viola II (2020) [Official Digital Download 24/88]

Daniel Weissmann & Peter Petrov - The Romantic Viola II (2020)
FLAC (tracks) 24-bit/88,2 kHz | Front Cover & Digital Booklet | Time - 71:10 minutes | 1,14 GB
Classical | Label: Fuga Libera, Official Digital Download

Daniel Weissmann, Managing Director of the Liège Royal Philharmonic, is alsoa violist. Following an initial album released by Fuga Libera (2018) and chiefly devoted to German music, he continues his exploration of the chamber repertory for viola with this new album, here in partnership with the pianist Peter Petrov. The programme explores the French Romantic repertory, in a worldpremiere recording of the British musicologist Hugh Macdonald’s remarkable and formidably difficult arrangement for viola and piano of Berlioz’s Harold en Italie. The album is completed by ‘fin-de-siècle’ pieces by Vierne, Chausson and Tournemire (all three students of César Franck), written between 1894 and 1897, which embrace the full expressive and melancholic potential of the instrument.

Tracklist:
1. Suite en trois parties, Op. 11: I. Allegro ben moderato (05:58)
2. Suite en trois parties, Op. 11: II. Largo (05:48)
3. Suite en trois parties, Op. 11: III. Allegro (06:30)
4. Pièce pour violoncelle ou alto et piano, Op. 39: Tranquille mais sans lenteur, plus animé, lent (06:48)
5. Deux pièces pour alto, Op. 5: I. Le soir (03:30)
6. Deux pièces pour alto, Op. 5: II. Légende (01:51)
7. Harold en Italie, H 68: I. Adagio - Allegro ( (Arr. for Viola and Piano by Hugh Macdonald) (14:35)
8. Harold en Italie, H 68: II. Allegretto (Arr. for Viola and Piano by Hugh Macdonald) (07:24)
9. Harold en Italie, H 68: III. Allegro Assai - Allegretto (Arr. for Viola and Piano by Hugh Macdonald) (06:26)
10. Harold en Italie, H 68: IV. Allegro frenetico - Adagio - Tempo con fuoco (Arr. for Viola and Piano by Hugh Macdonald) (12:17)

foobar2000 1.4.1 / Dynamic Range Meter 1.1.1
log date: 2020-10-18 20:19:41

––––––––––––––––––––––––––––––––––––––––
Analyzed: Daniel Weissmann & Peter Petrov / The Romantic Viola II
––––––––––––––––––––––––––––––––––––––––

DR Peak RMS Duration Track
––––––––––––––––––––––––––––––––––––––––
DR13 -2.84 dB -20.42 dB 5:58 01-Suite en trois parties, Op. 11: I. Allegro ben moderato
DR12 -5.84 dB -23.38 dB 5:48 02-Suite en trois parties, Op. 11: II. Largo
DR13 -2.70 dB -20.37 dB 6:30 03-Suite en trois parties, Op. 11: III. Allegro
DR14 -2.94 dB -22.27 dB 6:48 04-Pièce pour violoncelle ou alto et piano, Op. 39: Tranquille mais sans lenteur, plus animé, lent
DR13 -6.70 dB -24.96 dB 3:30 05-Deux pièces pour alto, Op. 5: I. Le soir
DR11 -11.05 dB -25.42 dB 1:51 06-Deux pièces pour alto, Op. 5: II. Légende
DR14 -1.14 dB -20.15 dB 14:35 07-Harold en Italie, H 68: I. Adagio - Allegro (Arr. for Viola and Piano by Hugh Macdonald)
DR13 -6.77 dB -25.15 dB 7:24 08-Harold en Italie, H 68: II. Allegretto (Arr. for Viola and Piano by Hugh Macdonald)
DR12 -7.43 dB -23.05 dB 6:27 09-Harold en Italie, H 68: III. Allegro Assai - Allegretto (Arr. for Viola and Piano by Hugh Macdonald)
DR14 -1.12 dB -19.17 dB 12:18 10-Harold en Italie, H 68: IV. Allegro frenetico - Adagio - Tempo con fuoco (Arr. for Viola and Piano by Hugh Macdonald)
––––––––––––––––––––––––––––––––––––––––

Number of tracks: 10
Official DR value: DR13

Samplerate: 88200 Hz
Channels: 2
Bits per sample: 24
Bitrate: 2286 kbps
Codec: FLAC
================================================================================


Thanks to the Original customer!