Tags
Language
Tags
June 2024
Su Mo Tu We Th Fr Sa
26 27 28 29 30 31 1
2 3 4 5 6 7 8
9 10 11 12 13 14 15
16 17 18 19 20 21 22
23 24 25 26 27 28 29
30 1 2 3 4 5 6

06577 BC2015 PhenomSage-Gurren Lagann Age of Spiral amvnews ru mp4" yEnc

Posted By: Otaku
06577 BC2015 PhenomSage-Gurren Lagann Age of Spiral amvnews ru mp4" yEnc

06577 BC2015 PhenomSage-Gurren Lagann Age of Spiral amvnews ru mp4" yEnc
BRAW | 1280x720 | H264 @ 2850 kbps | AAC @ 160.008 kbps | 2 min 24 s | 52.0 MiB



06577.BC2015.PhenomSage-Gurren.Lagann.Age.of.Spiral.amvnews.ru.mp4 (52.0 MB)
06577.BC2015.PhenomSage-Gurren.Lagann.Age.of.Spiral.amvnews.ru.srt (1.8 KB)



General
Complete name : ./06577.BC2015.PhenomSage-Gurren.Lagann.Age.of.Spiral.amvnews.ru.mp4
Format : MPEG-4
Format profile : Base Media
Codec ID : isom (isom)
File size : 52.0 MiB
Duration : 2 min 24 s
Overall bit rate mode : Variable
Overall bit rate : 3 021 kb/s
Movie name : Gurren Lagann: Age of Spiral
Performer : PhenomSage
Genre : Big Contest 2015, Trailer
ContentType : Music Video
Description : One of the largest movie premieres of the year, scratch that, of all time, is almost upon us! (and is already upon you if you live in any country other than America) / / This submission for Big Contest 2015 is a fun mash-up between Gurren Lagann and T…
Recorded date : 2015-04-23T00:00:00+04:00
Encoded date : UTC 2015-04-24 06:31:27
Tagged date : UTC 2015-04-24 06:31:27
Cover : Yes
Comment : Anime: Tengen Toppa Gurren Lagann, Tengen Toppa Gurren Lagann Gurren-Hen, Tengen Toppa Gurren Lagann Lagann… / Music: Marvel's Avengers: Age of Ultron - Trailer 3 / More at AMVNews.ru
PodcastURL : (Binary)

Video
ID : 1
Format : AVC
Format/Info : Advanced Video Codec
Format profile : Main@L4
Format settings : CABAC / 8 Ref Frames
Format settings, CABAC : Yes
Format settings, Reference frames : 8 frames
Codec ID : avc1
Codec ID/Info : Advanced Video Coding
Duration : 2 min 24 s
Bit rate : 2 850 kb/s
Maximum bit rate : 10.7 Mb/s
Width : 1 280 pixels
Height : 720 pixels
Display aspect ratio : 16:9
Frame rate mode : Constant
Frame rate : 29.970 (30000/1001) FPS
Color space : YUV
Chroma subsampling : 4:2:0
Bit depth : 8 bits
Scan type : Progressive
Bits/(Pixel*Frame) : 0.103
Stream size : 49.1 MiB (94%)
Writing library : x264 core 142 r2479 dd79a61
Encoding settings : cabac=1 / ref=8 / deblock=1:0:0 / analyse=0x1:0x131 / me=umh / subme=9 / psy=1 / psy_rd=1.00:0.00 / mixed_ref=1 / me_range=16 / chroma_me=1 / trellis=2 / 8x8dct=0 / cqm=0 / deadzone=21,11 / fast_pskip=1 / chroma_qp_offset=-2 / threads=12 / lookahead_threads=1 / sliced_threads=0 / nr=0 / decimate=1 / interlaced=0 / bluray_compat=0 / constrained_intra=0 / bframes=3 / b_pyramid=2 / b_adapt=2 / b_bias=0 / direct=3 / weightb=1 / open_gop=0 / weightp=2 / keyint=300 / keyint_min=30 / scenecut=40 / intra_refresh=0 / rc_lookahead=60 / rc=crf / mbtree=1 / crf=20.0 / qcomp=0.60 / qpmin=0 / qpmax=69 / qpstep=4 / vbv_maxrate=20000 / vbv_bufsize=25000 / crf_max=0.0 / nal_hrd=none / filler=0 / ip_ratio=1.40 / aq=1:1.00
Encoded date : UTC 2015-04-24 06:31:04
Tagged date : UTC 2015-04-24 06:31:27
Color range : Limited
Color primaries : BT.709
Transfer characteristics : BT.709
Matrix coefficients : BT.709
Codec configuration box : avcC

Audio
ID : 2
Format : AAC LC
Format/Info : Advanced Audio Codec Low Complexity
Codec ID : mp4a-40-2
Duration : 2 min 24 s
Bit rate mode : Variable
Bit rate : 160 kb/s
Maximum bit rate : 164 kb/s
Channel(s) : 2 channels
Channel layout : L R
Sampling rate : 48.0 kHz
Frame rate : 46.875 FPS (1024 SPF)
Compression mode : Lossy
Stream size : 2.75 MiB (5%)
Encoded date : UTC 2015-04-24 06:31:27
Tagged date : UTC 2015-04-24 06:31:27





06577 BC2015 PhenomSage-Gurren Lagann Age of Spiral amvnews ru mp4" yEnc


06577 BC2015 PhenomSage-Gurren Lagann Age of Spiral amvnews ru mp4" yEnc


06577 BC2015 PhenomSage-Gurren Lagann Age of Spiral amvnews ru mp4" yEnc


06577 BC2015 PhenomSage-Gurren Lagann Age of Spiral amvnews ru mp4" yEnc