Tags
Language
Tags

Mob Psycho 100 (2016, 2019)

Posted By: Lebedev30
1080p (FullHD) / WEBRip IMDb
Mob Psycho 100 (2016, 2019)

Mob Psycho 100 (2016, 2019)
WEBRip | MKV | 1920x1080 | H264@5901 Kbps | 25x ~ 25mn | 25x ~1 Gb
日本語 AAC@128 Kbps | 2 channels | Subtitles: العربية, English, Español, Português, Русский, Italiano, Deutsch, Français
Genre: action, comedy, shounen, super power


Description:
Kageyama Shigeo (a.k.a. "Mob") is a 8th grader with psychic abilities. He could bend spoons and lift objects with his mind from a young age, but he slowly began to withhold from using his abilities in public due to the negative attention he kept receiving. Now, the only thing he wants is to become friends with a girl in his class, Tsubomi. With his psychic "mentor" (who has no psychic powers), he continues his daily life, attempting to realize his purpose in life.








01. Self-Proclaimed Psychic: Reigen Arataka - And Mob
02. Doubts About Youth: The Telepathy Club Appears
03. An Invite to a Meeting: Simply Put, I Just Want to Be Popular
04. Idiots Only Event: Kin
05. Ochimusha: Psychic Powers and Me
06. Discord: To Become One
07. Exaltation: I`ve Obtained Loss
08. The Older Brother Bows: Destructive Intent
09. "Claw": 7th Division
10. The Heinous Aura: Mastermind
11. Master: Leader
12. Mob and Reigen: A Giant Tsuchinoko Appears
01. Ripped Apart: Someone Is Watching
02. Urban Legends: Encountering Rumors
03. One Danger After Another: Degeneration
04. Inside: Evil Spirit
05. Discord: Choices
06. Poor, Lonely, Whitey
07. Cornered: True Identity
08. Even Then: Continue Forward
09. Show Me What You`ve Got: Band Together
10. Collision: Power Type
11. Guidance: Psychic Sensor
12. The Battle for Social Rehabilitation: Friendship
13. Boss Fight: The Final Light


General
Format : Matroska
Format version : Version 4 / Version 2
File size : 1.02 GiB
Duration : 24 min 10 s
Overall bit rate : 6 033 kb/s
Encoded date : UTC 2019-04-03 16:46:00
Writing application : mkvmerge v32.0.0 ('Astral Progressions') 64-bit
Writing library : libebml v1.3.7 + libmatroska v1.5.0

Video
ID : 1
Format : AVC
Format/Info : Advanced Video Codec
Format profile : High@L4
Format settings : CABAC / 4 Ref Frames
Format settings, CABAC : Yes
Format settings, RefFrames : 4 frames
Codec ID : V_MPEG4/ISO/AVC
Duration : 24 min 10 s
Bit rate : 5 901 kb/s
Width : 1 920 pixels
Height : 1 080 pixels
Display aspect ratio : 16:9
Frame rate mode : Constant
Frame rate : 23.976 (24000/1001) FPS
Color space : YUV
Chroma subsampling : 4:2:0
Bit depth : 8 bits
Scan type : Progressive
Bits/(Pixel*Frame) : 0.119
Stream size : 1 020 MiB (98%)
Writing library : x264 core 142
Encoding settings : cabac=1 / ref=4 / deblock=1:1:1 / analyse=0x3:0x113 / me=umh / subme=8 / psy=1 / psy_rd=0.40:0.00 / mixed_ref=1 / me_range=16 / chroma_me=1 / trellis=1 / 8x8dct=1 / cqm=0 / deadzone=21,11 / fast_pskip=1 / chroma_qp_offset=-2 / threads=12 / lookahead_threads=2 / sliced_threads=0 / nr=0 / decimate=1 / interlaced=0 / bluray_compat=0 / constrained_intra=0 / bframes=3 / b_pyramid=2 / b_adapt=2 / b_bias=0 / direct=3 / weightb=1 / open_gop=0 / weightp=2 / keyint=48 / keyint_min=25 / scenecut=0 / intra_refresh=0 / rc_lookahead=48 / rc=crf / mbtree=1 / crf=15.0 / qcomp=0.60 / qpmin=0 / qpmax=69 / qpstep=4 / vbv_maxrate=8000 / vbv_bufsize=12000 / crf_max=0.0 / nal_hrd=none / filler=0 / ip_ratio=1.40 / aq=1:0.60
Language : Japanese
Default : Yes
Forced : No

Audio
ID : 2
Format : AAC
Format/Info : Advanced Audio Codec
Format profile : LC
Codec ID : A_AAC-2
Duration : 24 min 10 s
Bit rate : 128 kb/s
Channel(s) : 2 channels
Channel positions : Front: L R
Sampling rate : 44.1 kHz
Frame rate : 43.066 FPS (1024 SPF)
Compression mode : Lossy
Delay relative to video : -83 ms
Stream size : 22.1 MiB (2%)
Language : Japanese
Default : Yes
Forced : No

Text #1
ID : 3
Format : ASS
Codec ID : S_TEXT/ASS
Codec ID/Info : Advanced Sub Station Alpha
Duration : 24 min 9 s
Bit rate : 180 b/s
Count of elements : 432
Compression mode : Lossless
Stream size : 32.0 KiB (0%)
Title : English(US)
Language : English
Default : Yes
Forced : No

Text #2
ID : 4
Format : ASS
Codec ID : S_TEXT/ASS
Codec ID/Info : Advanced Sub Station Alpha
Duration : 24 min 7 s
Bit rate : 154 b/s
Count of elements : 367
Compression mode : Lossless
Stream size : 27.3 KiB (0%)
Title : Francais(France)
Language : French
Default : No
Forced : No

Text #3
ID : 5
Format : ASS
Codec ID : S_TEXT/ASS
Codec ID/Info : Advanced Sub Station Alpha
Duration : 24 min 7 s
Bit rate : 193 b/s
Count of elements : 415
Compression mode : Lossless
Stream size : 34.1 KiB (0%)
Title : Deutsch
Language : German
Default : No
Forced : No

Text #4
ID : 6
Format : ASS
Codec ID : S_TEXT/ASS
Codec ID/Info : Advanced Sub Station Alpha
Duration : 24 min 9 s
Bit rate : 215 b/s
Count of elements : 457
Compression mode : Lossless
Stream size : 38.2 KiB (0%)
Title : Italiano
Language : Italian
Default : No
Forced : No

Text #5
ID : 7
Format : ASS
Codec ID : S_TEXT/ASS
Codec ID/Info : Advanced Sub Station Alpha
Duration : 24 min 8 s
Bit rate : 135 b/s
Count of elements : 382
Compression mode : Lossless
Stream size : 23.9 KiB (0%)
Title : Espanol(Espana)
Language : Spanish
Default : No
Forced : No

Text #6
ID : 8
Format : ASS
Codec ID : S_TEXT/ASS
Codec ID/Info : Advanced Sub Station Alpha
Duration : 24 min 8 s
Bit rate : 134 b/s
Count of elements : 381
Compression mode : Lossless
Stream size : 23.8 KiB (0%)
Title : Espanol
Language : Spanish
Default : No
Forced : No

Text #7
ID : 9
Format : ASS
Codec ID : S_TEXT/ASS
Codec ID/Info : Advanced Sub Station Alpha
Duration : 24 min 9 s
Bit rate : 179 b/s
Count of elements : 432
Compression mode : Lossless
Stream size : 31.8 KiB (0%)
Title : Portugues(Brasil)
Language : Portuguese
Default : No
Forced : No

Text #8
ID : 10
Format : ASS
Codec ID : S_TEXT/ASS
Codec ID/Info : Advanced Sub Station Alpha
Duration : 24 min 9 s
Bit rate : 222 b/s
Count of elements : 431
Compression mode : Lossless
Stream size : 39.3 KiB (0%)
Language : Arabic
Default : No
Forced : No

Text #9
ID : 11
Format : ASS
Codec ID : S_TEXT/ASS
Codec ID/Info : Advanced Sub Station Alpha
Duration : 24 min 7 s
Bit rate : 215 b/s
Count of elements : 460
Compression mode : Lossless
Stream size : 38.1 KiB (0%)
Language : Russian
Default : No
Forced : No


Screenshots

Mob Psycho 100 (2016, 2019)

Mob Psycho 100 (2016, 2019)

Mob Psycho 100 (2016, 2019)


My publications | Rss Channel