Tags
Language
Tags
December 2022
Su Mo Tu We Th Fr Sa
27 28 29 30 1 2 3
4 5 6 7 8 9 10
11 12 13 14 15 16 17
18 19 20 21 22 23 24
25 26 27 28 29 30 31

Sarazanmai (2019)

Posted By: Lebedev30
1080p (FullHD) / WEBRip IMDb
Sarazanmai (2019)

Sarazanmai (2019)
WEBRip | MKV | 1920x1080 | H264@5078 Kbps | 11x ~ 25mn | 11x ~850 Mb
日本語 AAC@128 Kbps | 2 channels | Subtitles: English, Español, Português
Genre: noitaminA


Description:
Yasaka Kazuki, an 8th grader living in Asakusa, is turned into a Kappa along with his classmates Tooi and Enta by a mysterious creature named Keppi, after they break inadvertently a statue of a Kappa, the guardian god of the city.
They are then ordered by Keppi, who claims to be the first heir to the throne of Kappa Kingdom, to fight against the Kapa-zombies, bioarms created by his enemies, if they want to return to their human form.
In order to kill them, they have to make a specific sound called "Sarazanmai" which is produced only when the three of them are united, but the three boys cannot connect at first.
In addition, one of their secrets is revealed to each other every time they emit the sound!
They finally accept to take risks to collect the "Plates of Hope", given by Keppi when they defeat the Kapa-zombies, and which can make their wishes come true. However, some trouble occurs over the plates…!
Along the course of the fights against the Kapa-zombies, their fierce past and inner conflicts keep getting revealed. This is the sarcastic fantasy of three boys who don't feel connected to their important ones, getting to realize the real meaning of bonds.






01. I Want to Be Connected, but I Want to Lie
02. I Want to Connect, but I Want to Take
03. I Want to Connect, but It`s Not Meant to Be
04. I Want to Connect, but You`re So Far Away
05. I Want to Connect, but I Can`t Be Forgiven
06. I Want to Connect, So I`m Not Giving Up
07. I Want to Connect, but I Want to Betray
08. I Want to Connect, but We`ll Never Meet Again
09. I Want to Connect, but I Can`t Express It
10. I Want to Connect, but I Can`t
11. I Want to Connect, So Sarazanmai


General
Format : Matroska
Format version : Version 4 / Version 2
File size : 854 MiB
Duration : 22 min 55 s
Overall bit rate : 5 208 kb/s
Encoded date : UTC 2019-04-12 00:05:29
Writing application : mkvmerge v26.0.0 ('In The Game') 64-bit
Writing library : libebml v1.3.6 + libmatroska v1.4.9

Video
ID : 1
Format : AVC
Format/Info : Advanced Video Codec
Format profile : High@L4
Format settings : CABAC / 4 Ref Frames
Format settings, CABAC : Yes
Format settings, RefFrames : 4 frames
Codec ID : V_MPEG4/ISO/AVC
Duration : 22 min 55 s
Bit rate : 5 078 kb/s
Width : 1 920 pixels
Height : 1 080 pixels
Display aspect ratio : 16:9
Frame rate mode : Constant
Frame rate : 23.976 (24000/1001) FPS
Color space : YUV
Chroma subsampling : 4:2:0
Bit depth : 8 bits
Scan type : Progressive
Bits/(Pixel*Frame) : 0.102
Stream size : 832 MiB (97%)
Writing library : x264 core 142
Encoding settings : cabac=1 / ref=4 / deblock=1:1:1 / analyse=0x3:0x113 / me=umh / subme=8 / psy=1 / psy_rd=0.40:0.00 / mixed_ref=1 / me_range=16 / chroma_me=1 / trellis=1 / 8x8dct=1 / cqm=0 / deadzone=21,11 / fast_pskip=1 / chroma_qp_offset=-2 / threads=12 / lookahead_threads=2 / sliced_threads=0 / nr=0 / decimate=1 / interlaced=0 / bluray_compat=0 / constrained_intra=0 / bframes=3 / b_pyramid=2 / b_adapt=2 / b_bias=0 / direct=3 / weightb=1 / open_gop=0 / weightp=2 / keyint=9999999 / keyint_min=5000000 / scenecut=0 / intra_refresh=0 / rc_lookahead=50 / rc=crf / mbtree=1 / crf=15.0 / qcomp=0.60 / qpmin=0 / qpmax=69 / qpstep=4 / vbv_maxrate=8000 / vbv_bufsize=12000 / crf_max=0.0 / nal_hrd=none / filler=0 / ip_ratio=1.40 / aq=1:0.60
Default : Yes
Forced : No

Audio
ID : 2
Format : AAC
Format/Info : Advanced Audio Codec
Format profile : LC
Codec ID : A_AAC-2
Duration : 22 min 55 s
Bit rate : 128 kb/s
Channel(s) : 2 channels
Channel positions : Front: L R
Sampling rate : 44.1 kHz
Frame rate : 43.066 FPS (1024 SPF)
Compression mode : Lossy
Delay relative to video : -83 ms
Stream size : 21.0 MiB (2%)
Default : Yes
Forced : No

Text #1
ID : 3
Format : ASS
Codec ID : S_TEXT/ASS
Codec ID/Info : Advanced Sub Station Alpha
Duration : 22 min 50 s
Bit rate : 130 b/s
Count of elements : 352
Compression mode : Lossless
Stream size : 21.8 KiB (0%)
Title : English(US)
Language : English
Default : Yes
Forced : No

Text #2
ID : 4
Format : ASS
Codec ID : S_TEXT/ASS
Codec ID/Info : Advanced Sub Station Alpha
Duration : 22 min 21 s
Bit rate : 111 b/s
Count of elements : 297
Compression mode : Lossless
Stream size : 18.2 KiB (0%)
Title : Espanol
Language : Spanish
Default : No
Forced : No

Text #3
ID : 5
Format : ASS
Codec ID : S_TEXT/ASS
Codec ID/Info : Advanced Sub Station Alpha
Duration : 22 min 50 s
Bit rate : 141 b/s
Count of elements : 338
Compression mode : Lossless
Stream size : 23.6 KiB (0%)
Title : Portugues(Brasil)
Language : Portuguese
Default : No
Forced : No


Screenshots

Sarazanmai (2019)

Sarazanmai (2019)

Sarazanmai (2019)


My publications | Rss Channel