Tags
Language
Tags

Shingeki no Kyojin (2013,2017-2019)

Posted By: Lebedev30
1080p (FullHD) / WEBRip IMDb
Shingeki no Kyojin (2013,2017-2019)

Shingeki no Kyojin (2013,2017-2019)
WEBRip | MKV | 1920x1080 | H264@8000 Kbps | 59x ~ 25mn | 59x ~1.3 Gb
日本語 AAC@253 Kbps | 2 channels | Subtitles: English, Español, Português
Genre: action, adventure, angst, fantasy, horror, military, post-apocalyptic, rotten world, shounen, tragedy, violence


Description:
Several hundred years ago, humans were nearly exterminated by titans. Titans are typically several stories tall, seem to have no intelligence, devour human beings and, worst of all, seem to do it for the pleasure rather than as a food source. A small percentage of humanity survived by walling themselves in a city protected by extremely high walls, even taller than the biggest of titans.

Flash forward to the present and the city has not seen a titan in over 100 years. Teenage boy Eren and his foster sister Mikasa witness something horrific as the city walls are destroyed by a super titan that appears out of thin air. As the smaller titans flood the city, the two kids watch in horror as their mother is eaten alive. Eren vows that he will murder every single titan and take revenge for all of mankind.












01. To You, 2000 Years in the Future: The Fall of Zhiganshina (1)
02. That Day: The Fall of Zhiganshina (2)
03. A Dim Light in the Darkness of Despair: Humanity Rises Again (1)
04. Night of the Graduation Ceremony: Humanity Rises Again (2)
05. First Battle: Battle of Trost (1)
06. The World the Girl Saw: Battle for Trost (2)
07. The Small Blade: The Battle for Trost (3)
08. Hearing the Heartbeat: The Battle for Trost (4)
09. Where the Left Arm Went: The Battle for Trost (5)
10. Response: The Battle for Trost (6)
11. Icon: The Battle for Trost (7)
12. Wound: The Battle for Trost (8)
13. Primal Desires: The Battle for Trost (9)
14. Still Can`t See: Night Before the Counteroffensive (1)
15. Special Ops Squad: Night Before the Counteroffensive (2)
16. What Should Be Done: Night Before the Counteroffensive (3)
17. Female Titan: 57th Expedition Beyond the Walls (1)
18. Forest of Giant Trees: 57th Expedition Beyond the Walls (2)
19. Bite: 57th Expedition Beyond the Walls (3)
20. Erwin Smith: 57th Expedition Beyond the Walls (4)
21. Crushing Blow: 57th Expedition Beyond the Walls (5)
22. The Defeated: 57th Expedition Beyond the Walls (6)
23. Smile: Raid on Stohess District (1)
24. Mercy: Raid on Stohess District (2)
25. The Wall: Raid on Stohess District (3)
01. Beast Titan
02. I`m Home
03. Southwestward
04. Soldier
05. Historia
06. Warrior
07. Close Combat
08. The Hunters
09. Opening
10. Children
11. Charge
12. Scream
01. Smoke Signal
02. Pain
03. Old Story
04. Trust
05. Reply
06. Sin
07. Wish
08. Outside the Walls of Orvud District
09. Ruler of the Walls
10. Friends
11. Bystander
12. Night of the Battle to Retake the Wall
01. The Town Where Everything Began
02. Thunder Spears
03. Descent
04. Perfect Game
05. Hero
06. Midnight Sun
07. The Basement
08. That Day
09. Attack Titan
10. The Other Side of the Wall


General
Format : Matroska
Format version : Version 4 / Version 2
File size : 1.44 GiB
Duration : 25 min 59 s
Overall bit rate : 7 945 kb/s
Encoded date : UTC 2019-04-27 18:32:06
Writing application : mkvmerge v32.0.0 ('Astral Progressions') 64-bit
Writing library : libebml v1.3.7 + libmatroska v1.5.0

Video
ID : 1
Format : AVC
Format/Info : Advanced Video Codec
Format profile : High@L4
Format settings : CABAC / 4 Ref Frames
Format settings, CABAC : Yes
Format settings, RefFrames : 4 frames
Format settings, GOP : M=3, N=4
Codec ID : V_MPEG4/ISO/AVC
Duration : 25 min 56 s
Bit rate : 8 000 kb/s
Width : 1 920 pixels
Height : 1 080 pixels
Display aspect ratio : 16:9
Frame rate mode : Constant
Frame rate : 23.976 (24000/1001) FPS
Color space : YUV
Chroma subsampling : 4:2:0
Bit depth : 8 bits
Scan type : Progressive
Bits/(Pixel*Frame) : 0.161
Stream size : 1.40 GiB (97%)
Writing library : x264 core 150 r2833 df79067
Encoding settings : cabac=1 / ref=1 / deblock=1:0:0 / analyse=0x3:0x113 / me=hex / subme=7 / psy=1 / psy_rd=1.00:0.00 / mixed_ref=0 / me_range=16 / chroma_me=1 / trellis=1 / 8x8dct=1 / cqm=0 / deadzone=21,11 / fast_pskip=1 / chroma_qp_offset=-2 / threads=24 / lookahead_threads=4 / sliced_threads=0 / nr=0 / decimate=1 / interlaced=0 / bluray_compat=0 / constrained_intra=0 / bframes=2 / b_pyramid=2 / b_adapt=1 / b_bias=0 / direct=1 / weightb=1 / open_gop=0 / weightp=2 / keyint=48 / keyint_min=4 / scenecut=40 / intra_refresh=0 / rc_lookahead=40 / rc=cbr / mbtree=1 / bitrate=8000 / ratetol=1.0 / qcomp=0.60 / qpmin=0 / qpmax=69 / qpstep=4 / vbv_maxrate=8000 / vbv_bufsize=24000 / nal_hrd=none / filler=0 / ip_ratio=1.40 / aq=1:1.00
Language : Japanese
Default : Yes
Forced : No

Audio
ID : 2
Format : AAC
Format/Info : Advanced Audio Codec
Format profile : LC
Codec ID : A_AAC-2
Duration : 25 min 56 s
Bit rate : 253 kb/s
Channel(s) : 2 channels
Channel positions : Front: L R
Sampling rate : 48.0 kHz
Frame rate : 46.875 FPS (1024 SPF)
Compression mode : Lossy
Delay relative to video : -43 ms
Stream size : 47.0 MiB (3%)
Language : Japanese
Default : Yes
Forced : No

Text #1
ID : 3
Format : ASS
Codec ID : S_TEXT/ASS
Codec ID/Info : Advanced Sub Station Alpha
Duration : 25 min 12 s
Bit rate : 88 b/s
Count of elements : 304
Compression mode : Lossless
Stream size : 16.4 KiB (0%)
Language : English
Default : Yes
Forced : No

Text #2
ID : 4
Format : ASS
Codec ID : S_TEXT/ASS
Codec ID/Info : Advanced Sub Station Alpha
Duration : 25 min 17 s
Bit rate : 92 b/s
Count of elements : 322
Compression mode : Lossless
Stream size : 17.2 KiB (0%)
Language : English
Default : No
Forced : No

Text #3
ID : 5
Format : ASS
Codec ID : S_TEXT/ASS
Codec ID/Info : Advanced Sub Station Alpha
Duration : 25 min 17 s
Bit rate : 80 b/s
Count of elements : 302
Compression mode : Lossless
Stream size : 14.9 KiB (0%)
Language : Portuguese
Default : No
Forced : No

Text #4
ID : 6
Format : ASS
Codec ID : S_TEXT/ASS
Codec ID/Info : Advanced Sub Station Alpha
Duration : 25 min 17 s
Bit rate : 79 b/s
Count of elements : 287
Compression mode : Lossless
Stream size : 14.7 KiB (0%)
Language : Spanish
Default : No
Forced : No


Screenshots

Shingeki no Kyojin (2013,2017-2019)

Shingeki no Kyojin (2013,2017-2019)

Shingeki no Kyojin (2013,2017-2019)


My publications | Rss Channel