Tags
Language
Tags

Senran Kagura: Shinovi Master - Tokyo Youma Hen (2018)

Posted By: Lebedev30
1080p (FullHD) / WEBRip IMDb
Senran Kagura: Shinovi Master - Tokyo Youma Hen (2018)

Senran Kagura: Shinovi Master - Tokyo Youma Hen (2018)
WEBRip | MKV | 1920x1080 | H264@7198 Kbps | 12x ~ 25mn | 12x ~1.2 Gb
日本語 AAC@128 Kbps | 2 channels | Subtitles: English, Español, Português, Русский, Italiano, Deutsch, Français
Genre: action, comedy, ecchi, large breasts, ninja, pantsu, super power, swordplay


Description:
Girls study at schools for modern shinobi. They dedicate their entire young lives to learning to become true shinobi, battling each other to polish their skills. And then one day, Asuka, whose grandfather is a legendary shinobi, encounters an ancient evil being named a "Youma" in the back alleys of Tokyo at Christmastime.

Where there is light, there is shadow. Over 28 of the strongest and most well-endowed ninjas in history, both good and evil, will collide in a battle to determine true justice. And this deadly battle begins… right now.






01. Change the World
02. PBS
03. Rocket Dive
04. It`s Showtime!!
05. Be Honest
06. Shinovi Versus
07. We`ll Meet Again
08. Don`t Stop Believing
09. Burn
10. Two Hearts
11. Life Is Beautiful
12. Hometown


General
Format : Matroska
Format version : Version 4 / Version 2
File size : 1.21 GiB
Duration : 23 min 41 s
Overall bit rate : 7 330 kb/s
Encoded date : UTC 2018-10-12 19:47:23
Writing application : mkvmerge v26.0.0 ('In The Game') 64-bit
Writing library : libebml v1.3.6 + libmatroska v1.4.9

Video
ID : 1
Format : AVC
Format/Info : Advanced Video Codec
Format profile : High@L4
Format settings : CABAC / 4 Ref Frames
Format settings, CABAC : Yes
Format settings, RefFrames : 4 frames
Codec ID : V_MPEG4/ISO/AVC
Duration : 23 min 41 s
Bit rate : 7 198 kb/s
Width : 1 920 pixels
Height : 1 080 pixels
Display aspect ratio : 16:9
Frame rate mode : Constant
Frame rate : 23.976 (24000/1001) FPS
Color space : YUV
Chroma subsampling : 4:2:0
Bit depth : 8 bits
Scan type : Progressive
Bits/(Pixel*Frame) : 0.145
Stream size : 1.19 GiB (98%)
Writing library : x264 core 142
Encoding settings : cabac=1 / ref=4 / deblock=1:1:1 / analyse=0x3:0x113 / me=umh / subme=8 / psy=1 / psy_rd=0.40:0.00 / mixed_ref=1 / me_range=16 / chroma_me=1 / trellis=1 / 8x8dct=1 / cqm=0 / deadzone=21,11 / fast_pskip=1 / chroma_qp_offset=-2 / threads=12 / lookahead_threads=2 / sliced_threads=0 / nr=0 / decimate=1 / interlaced=0 / bluray_compat=0 / constrained_intra=0 / bframes=3 / b_pyramid=2 / b_adapt=2 / b_bias=0 / direct=3 / weightb=1 / open_gop=0 / weightp=2 / keyint=48 / keyint_min=25 / scenecut=0 / intra_refresh=0 / rc_lookahead=48 / rc=crf / mbtree=1 / crf=15.0 / qcomp=0.60 / qpmin=0 / qpmax=69 / qpstep=4 / vbv_maxrate=8000 / vbv_bufsize=12000 / crf_max=0.0 / nal_hrd=none / filler=0 / ip_ratio=1.40 / aq=1:0.60
Default : Yes
Forced : No

Audio
ID : 2
Format : AAC
Format/Info : Advanced Audio Codec
Format profile : LC
Codec ID : A_AAC-2
Duration : 23 min 41 s
Bit rate : 128 kb/s
Channel(s) : 2 channels
Channel positions : Front: L R
Sampling rate : 44.1 kHz
Frame rate : 43.066 FPS (1024 SPF)
Compression mode : Lossy
Delay relative to video : -83 ms
Stream size : 21.7 MiB (2%)
Default : Yes
Forced : No

Text #1
ID : 3
Format : ASS
Codec ID : S_TEXT/ASS
Codec ID/Info : Advanced Sub Station Alpha
Duration : 22 min 55 s
Bit rate : 112 b/s
Count of elements : 322
Compression mode : Lossless
Stream size : 18.9 KiB (0%)
Title : English(US)
Language : English
Default : Yes
Forced : No

Text #2
ID : 4
Format : ASS
Codec ID : S_TEXT/ASS
Codec ID/Info : Advanced Sub Station Alpha
Duration : 22 min 55 s
Bit rate : 110 b/s
Count of elements : 298
Compression mode : Lossless
Stream size : 18.6 KiB (0%)
Title : Francais(France)
Language : French
Default : No
Forced : No

Text #3
ID : 5
Format : ASS
Codec ID : S_TEXT/ASS
Codec ID/Info : Advanced Sub Station Alpha
Duration : 22 min 55 s
Bit rate : 112 b/s
Count of elements : 332
Compression mode : Lossless
Stream size : 18.9 KiB (0%)
Title : Deutsch
Language : German
Default : No
Forced : No

Text #4
ID : 6
Format : ASS
Codec ID : S_TEXT/ASS
Codec ID/Info : Advanced Sub Station Alpha
Duration : 22 min 55 s
Bit rate : 111 b/s
Count of elements : 310
Compression mode : Lossless
Stream size : 18.8 KiB (0%)
Title : Italiano
Language : Italian
Default : No
Forced : No

Text #5
ID : 7
Format : ASS
Codec ID : S_TEXT/ASS
Codec ID/Info : Advanced Sub Station Alpha
Duration : 23 min 2 s
Bit rate : 107 b/s
Count of elements : 286
Compression mode : Lossless
Stream size : 18.1 KiB (0%)
Title : Espanol(Espana)
Language : Spanish
Default : No
Forced : No

Text #6
ID : 8
Format : ASS
Codec ID : S_TEXT/ASS
Codec ID/Info : Advanced Sub Station Alpha
Duration : 23 min 2 s
Bit rate : 106 b/s
Count of elements : 287
Compression mode : Lossless
Stream size : 17.9 KiB (0%)
Title : Espanol
Language : Spanish
Default : No
Forced : No

Text #7
ID : 9
Format : ASS
Codec ID : S_TEXT/ASS
Codec ID/Info : Advanced Sub Station Alpha
Duration : 22 min 55 s
Bit rate : 107 b/s
Count of elements : 303
Compression mode : Lossless
Stream size : 18.1 KiB (0%)
Title : Portugues(Brasil)
Language : Portuguese
Default : No
Forced : No

Text #8
ID : 10
Format : ASS
Codec ID : S_TEXT/ASS
Codec ID/Info : Advanced Sub Station Alpha
Duration : 23 min 2 s
Bit rate : 145 b/s
Count of elements : 323
Compression mode : Lossless
Stream size : 24.5 KiB (0%)
Title : Russian
Language : Russian
Default : No
Forced : No


Screenshots

Senran Kagura: Shinovi Master - Tokyo Youma Hen (2018)

Senran Kagura: Shinovi Master - Tokyo Youma Hen (2018)

Senran Kagura: Shinovi Master - Tokyo Youma Hen (2018)


My publications | Rss Channel