Tags
Language
Tags

Shigatsu wa Kimi no Uso (2014-2015)

Posted By: Lebedev30
1080p (FullHD) / WEBRip IMDb
Shigatsu wa Kimi no Uso (2014-2015)

Shigatsu wa Kimi no Uso (2014-2015)
WEBRip | MKV | 1920x1080 | H264@3830 Kbps | 22x ~ 25mn | 22x ~650 Mb
日本語 E-AC-3@128 Kbps | 2 channels | Subtitles: العربية, English, Español, Português, Italiano, Deutsch, Français
Genre: music, noitaminA, shounen, the arts, tragedy


Description:
* Based on Arakawa Naoshi's manga by the same name.

Arima Kousei is a former child prodigy who lost his ability to play the piano when his mother died. His daily life is monochrome, but it begins to gain colour when he meets a female violinist by chance. Miyazono Kaori is an audacious go-getter who is overflowing with personality. Enchanted by the girl, Kousei starts to move forward with his own legs at the age of 14.






01. Monotone / Colorful
02. Friend A
03. Inside Spring
04. Departure
05. Gray Skies
06. On the Way Home
07. The Shadows Whisper
08. Let It Ring
09. Resonance
10. The Scenery I Shared with You
11. Light of Life
12. Twinkle Little Star
13. Love`s Sadness
14. Footprints
15. Liar
16. Two of a Kind
17. Twilight
18. Hearts Come Together
19. Goodbye Hero
20. Hand in Hand
21. Snow
22. Spring Wind


General
Format : Matroska
Format version : Version 4 / Version 2
File size : 645 MiB
Duration : 22 min 57 s
Overall bit rate mode : Variable
Overall bit rate : 3 929 kb/s
Encoded date : UTC 2019-09-26 18:22:57
Writing application : mkvmerge v34.0.0 ('Sight and Seen') 64-bit
Writing library : libebml v1.3.7 + libmatroska v1.5.0

Video
ID : 1
Format : AVC
Format/Info : Advanced Video Codec
Format profile : Main@L4
Format settings : CABAC / 3 Ref Frames
Format settings, CABAC : Yes
Format settings, RefFrames : 3 frames
Codec ID : V_MPEG4/ISO/AVC
Duration : 22 min 57 s
Bit rate mode : Variable
Bit rate : 3 830 kb/s
Maximum bit rate : 5 745 kb/s
Width : 1 920 pixels
Height : 1 080 pixels
Display aspect ratio : 16:9
Frame rate mode : Constant
Frame rate : 23.976 (24000/1001) FPS
Color space : YUV
Chroma subsampling : 4:2:0
Bit depth : 8 bits
Scan type : Progressive
Bits/(Pixel*Frame) : 0.077
Stream size : 623 MiB (97%)
Writing library : x264 core 118
Encoding settings : cabac=1 / ref=3 / deblock=1:0:0 / analyse=0x1:0x111 / me=umh / subme=10 / psy=1 / psy_rd=1.00:0.00 / mixed_ref=1 / me_range=24 / chroma_me=1 / trellis=2 / 8x8dct=0 / cqm=0 / deadzone=21,11 / fast_pskip=1 / chroma_qp_offset=-2 / threads=8 / sliced_threads=0 / nr=0 / decimate=1 / interlaced=0 / bluray_compat=0 / constrained_intra=0 / bframes=2 / b_pyramid=0 / b_adapt=2 / b_bias=0 / direct=3 / weightb=1 / open_gop=0 / weightp=2 / keyint=48 / keyint_min=25 / scenecut=0 / intra_refresh=0 / rc_lookahead=0 / rc=2pass / mbtree=1 / bitrate=3830 / ratetol=1.0 / qcomp=0.50 / qpmin=6 / qpmax=51 / qpstep=4 / cplxblur=20.0 / qblur=0.5 / vbv_maxrate=5745 / vbv_bufsize=7660 / nal_hrd=vbr / ip_ratio=1.40 / aq=1:1.00
Language : Japanese
Default : Yes
Forced : No

Audio
ID : 2
Format : E-AC-3
Format/Info : Enhanced Audio Coding 3
Codec ID : A_EAC3
Duration : 22 min 57 s
Bit rate mode : Constant
Bit rate : 128 kb/s
Channel(s) : 2 channels
Channel positions : Front: L R
Sampling rate : 48.0 kHz
Frame rate : 187.500 FPS (256 SPF)
Compression mode : Lossy
Stream size : 21.0 MiB (3%)
Language : Japanese
Service kind : Complete Main
Default : Yes
Forced : No

Text #1
ID : 3
Format : ASS
Codec ID : S_TEXT/ASS
Codec ID/Info : Advanced Sub Station Alpha
Duration : 21 min 57 s
Bit rate : 90 b/s
Count of elements : 259
Compression mode : Lossless
Stream size : 14.5 KiB (0%)
Language : English
Default : Yes
Forced : No

Text #2
ID : 4
Format : ASS
Codec ID : S_TEXT/ASS
Codec ID/Info : Advanced Sub Station Alpha
Duration : 22 min 1 s
Bit rate : 111 b/s
Count of elements : 258
Compression mode : Lossless
Stream size : 17.9 KiB (0%)
Language : Arabic
Default : No
Forced : No

Text #3
ID : 5
Format : ASS
Codec ID : S_TEXT/ASS
Codec ID/Info : Advanced Sub Station Alpha
Duration : 22 min 4 s
Bit rate : 82 b/s
Count of elements : 253
Compression mode : Lossless
Stream size : 13.3 KiB (0%)
Language : Spanish
Default : No
Forced : No

Text #4
ID : 6
Format : ASS
Codec ID : S_TEXT/ASS
Codec ID/Info : Advanced Sub Station Alpha
Duration : 22 min 0 s
Bit rate : 81 b/s
Count of elements : 233
Compression mode : Lossless
Stream size : 13.2 KiB (0%)
Language : Portuguese
Default : No
Forced : No

Text #5
ID : 7
Format : ASS
Codec ID : S_TEXT/ASS
Codec ID/Info : Advanced Sub Station Alpha
Duration : 21 min 46 s
Bit rate : 100 b/s
Count of elements : 296
Compression mode : Lossless
Stream size : 16.0 KiB (0%)
Language : German
Default : No
Forced : No

Text #6
ID : 8
Format : ASS
Codec ID : S_TEXT/ASS
Codec ID/Info : Advanced Sub Station Alpha
Duration : 21 min 50 s
Bit rate : 97 b/s
Count of elements : 274
Compression mode : Lossless
Stream size : 15.6 KiB (0%)
Language : French
Default : No
Forced : No

Text #7
ID : 9
Format : ASS
Codec ID : S_TEXT/ASS
Codec ID/Info : Advanced Sub Station Alpha
Duration : 22 min 1 s
Bit rate : 84 b/s
Count of elements : 247
Compression mode : Lossless
Stream size : 13.6 KiB (0%)
Language : Italian
Default : No
Forced : No

Text #8
ID : 10
Format : ASS
Codec ID : S_TEXT/ASS
Codec ID/Info : Advanced Sub Station Alpha
Duration : 21 min 59 s
Bit rate : 81 b/s
Count of elements : 255
Compression mode : Lossless
Stream size : 13.1 KiB (0%)
Language : Polish
Default : No
Forced : No

Text #9
ID : 11
Format : ASS
Codec ID : S_TEXT/ASS
Codec ID/Info : Advanced Sub Station Alpha
Duration : 21 min 59 s
Bit rate : 75 b/s
Count of elements : 227
Compression mode : Lossless
Stream size : 12.1 KiB (0%)
Language : Dutch
Default : No
Forced : No

Text #10
ID : 12
Format : ASS
Codec ID : S_TEXT/ASS
Codec ID/Info : Advanced Sub Station Alpha
Duration : 22 min 6 s
Bit rate : 81 b/s
Count of elements : 246
Compression mode : Lossless
Stream size : 13.1 KiB (0%)
Language : Norwegian Bokmal
Default : No
Forced : No

Text #11
ID : 13
Format : ASS
Codec ID : S_TEXT/ASS
Codec ID/Info : Advanced Sub Station Alpha
Duration : 21 min 57 s
Bit rate : 85 b/s
Count of elements : 243
Compression mode : Lossless
Stream size : 13.8 KiB (0%)
Language : Finnish
Default : No
Forced : No

Text #12
ID : 14
Format : ASS
Codec ID : S_TEXT/ASS
Codec ID/Info : Advanced Sub Station Alpha
Duration : 22 min 8 s
Bit rate : 88 b/s
Count of elements : 253
Compression mode : Lossless
Stream size : 14.4 KiB (0%)
Language : Turkish
Default : No
Forced : No

Text #13
ID : 15
Format : ASS
Codec ID : S_TEXT/ASS
Codec ID/Info : Advanced Sub Station Alpha
Duration : 22 min 5 s
Bit rate : 83 b/s
Count of elements : 253
Compression mode : Lossless
Stream size : 13.5 KiB (0%)
Language : Swedish
Default : No
Forced : No

Text #14
ID : 16
Format : ASS
Codec ID : S_TEXT/ASS
Codec ID/Info : Advanced Sub Station Alpha
Duration : 22 min 1 s
Bit rate : 115 b/s
Count of elements : 255
Compression mode : Lossless
Stream size : 18.6 KiB (0%)
Language : Greek
Default : No
Forced : No

Text #15
ID : 17
Format : ASS
Codec ID : S_TEXT/ASS
Codec ID/Info : Advanced Sub Station Alpha
Duration : 22 min 1 s
Bit rate : 96 b/s
Count of elements : 254
Compression mode : Lossless
Stream size : 15.6 KiB (0%)
Language : Hebrew
Default : No
Forced : No

Text #16
ID : 18
Format : ASS
Codec ID : S_TEXT/ASS
Codec ID/Info : Advanced Sub Station Alpha
Duration : 22 min 6 s
Bit rate : 79 b/s
Count of elements : 234
Compression mode : Lossless
Stream size : 12.9 KiB (0%)
Language : rom
Default : No
Forced : No

Text #17
ID : 19
Format : ASS
Codec ID : S_TEXT/ASS
Codec ID/Info : Advanced Sub Station Alpha
Duration : 22 min 3 s
Bit rate : 81 b/s
Count of elements : 245
Compression mode : Lossless
Stream size : 13.2 KiB (0%)
Language : Danish
Default : No
Forced : No


Screenshots

Shigatsu wa Kimi no Uso (2014-2015)

Shigatsu wa Kimi no Uso (2014-2015)

Shigatsu wa Kimi no Uso (2014-2015)


My publications | Rss Channel