Tags
Language
Tags

Sounan Desuka? (2019)

Posted By: Lebedev30
1080p (FullHD) / WEBRip IMDb
Sounan Desuka? (2019)

Sounan Desuka? (2019)
WEBRip | MKV | 1920x1080 | H264@3731 Kbps | 12x ~ 13mn | 12x ~350 Mb
日本語 AAC@128 Kbps | 2 channels | Subtitles: العربية, English, Español, Português, Русский, Italiano, Deutsch, Français
Genre: half-length episodes


Description:
Because of a plane crash … starting today, we're spending the springtime of our lives on a desert island!! There's nothing here, so we have to make everything!! And eat everything!! (Ugh!) Check out our high-school-girl survival story of courage and knowledge. We're actually doing pretty well! We learn how to eat cicadas, how to build traps, a simple allergy test, how to eat hermit crabs, etc.






01. Adrift
02. Our First Meal
03. Master of the Island
04. Trap
05. A Strange Turban Shell
06. Rabbit Tasting
07. Exploring the Island
08. Oasis Found?!
09. Homare`s Papa
10. Honey Bee
11. We Will Rescue Her
12. How to Replenish Water


General
Format : Matroska
Format version : Version 4 / Version 2
File size : 345 MiB
Duration : 12 min 30 s
Overall bit rate : 3 863 kb/s
Encoded date : UTC 2019-10-06 07:54:27
Writing application : mkvmerge v26.0.0 ('In The Game') 64-bit
Writing library : libebml v1.3.6 + libmatroska v1.4.9

Video
ID : 1
Format : AVC
Format/Info : Advanced Video Codec
Format profile : High@L4
Format settings : CABAC / 4 Ref Frames
Format settings, CABAC : Yes
Format settings, RefFrames : 4 frames
Codec ID : V_MPEG4/ISO/AVC
Duration : 12 min 30 s
Bit rate : 3 731 kb/s
Width : 1 920 pixels
Height : 1 080 pixels
Display aspect ratio : 16:9
Frame rate mode : Constant
Frame rate : 23.976 (24000/1001) FPS
Color space : YUV
Chroma subsampling : 4:2:0
Bit depth : 8 bits
Scan type : Progressive
Bits/(Pixel*Frame) : 0.075
Stream size : 334 MiB (97%)
Writing library : x264 core 142
Encoding settings : cabac=1 / ref=4 / deblock=1:1:1 / analyse=0x3:0x113 / me=umh / subme=8 / psy=1 / psy_rd=0.40:0.00 / mixed_ref=1 / me_range=16 / chroma_me=1 / trellis=1 / 8x8dct=1 / cqm=0 / deadzone=21,11 / fast_pskip=1 / chroma_qp_offset=-2 / threads=12 / lookahead_threads=2 / sliced_threads=0 / nr=0 / decimate=1 / interlaced=0 / bluray_compat=0 / constrained_intra=0 / bframes=3 / b_pyramid=2 / b_adapt=2 / b_bias=0 / direct=3 / weightb=1 / open_gop=0 / weightp=2 / keyint=96 / keyint_min=48 / scenecut=40 / intra_refresh=0 / rc_lookahead=48 / rc=crf / mbtree=1 / crf=15.0 / qcomp=0.60 / qpmin=0 / qpmax=69 / qpstep=4 / vbv_maxrate=8000 / vbv_bufsize=12000 / crf_max=0.0 / nal_hrd=none / filler=0 / ip_ratio=1.40 / aq=1:0.60
Default : Yes
Forced : No

Audio
ID : 2
Format : AAC
Format/Info : Advanced Audio Codec
Format profile : LC
Codec ID : A_AAC-2
Duration : 12 min 30 s
Bit rate : 128 kb/s
Channel(s) : 2 channels
Channel positions : Front: L R
Sampling rate : 44.1 kHz
Frame rate : 43.066 FPS (1024 SPF)
Compression mode : Lossy
Delay relative to video : -83 ms
Stream size : 11.4 MiB (3%)
Default : Yes
Forced : No

Text #1
ID : 3
Format : ASS
Codec ID : S_TEXT/ASS
Codec ID/Info : Advanced Sub Station Alpha
Duration : 12 min 25 s
Bit rate : 150 b/s
Count of elements : 212
Compression mode : Lossless
Stream size : 13.7 KiB (0%)
Title : English_US
Language : English
Default : Yes
Forced : No

Text #2
ID : 4
Format : ASS
Codec ID : S_TEXT/ASS
Codec ID/Info : Advanced Sub Station Alpha
Duration : 12 min 25 s
Bit rate : 170 b/s
Count of elements : 206
Compression mode : Lossless
Stream size : 15.5 KiB (0%)
Title : Arabic
Language : Arabic
Default : No
Forced : No

Text #3
ID : 5
Format : ASS
Codec ID : S_TEXT/ASS
Codec ID/Info : Advanced Sub Station Alpha
Duration : 12 min 25 s
Bit rate : 142 b/s
Count of elements : 177
Compression mode : Lossless
Stream size : 13.0 KiB (0%)
Title : Deutsch
Language : German
Default : No
Forced : No

Text #4
ID : 6
Format : ASS
Codec ID : S_TEXT/ASS
Codec ID/Info : Advanced Sub Station Alpha
Duration : 12 min 25 s
Bit rate : 142 b/s
Count of elements : 202
Compression mode : Lossless
Stream size : 13.0 KiB (0%)
Title : Espanol_Espana
Language : Spanish
Default : No
Forced : No

Text #5
ID : 7
Format : ASS
Codec ID : S_TEXT/ASS
Codec ID/Info : Advanced Sub Station Alpha
Duration : 12 min 25 s
Bit rate : 142 b/s
Count of elements : 202
Compression mode : Lossless
Stream size : 13.0 KiB (0%)
Title : Espanol
Language : Spanish
Default : No
Forced : No

Text #6
ID : 8
Format : ASS
Codec ID : S_TEXT/ASS
Codec ID/Info : Advanced Sub Station Alpha
Duration : 12 min 24 s
Bit rate : 139 b/s
Count of elements : 193
Compression mode : Lossless
Stream size : 12.6 KiB (0%)
Title : Francais_France
Language : French
Default : No
Forced : No

Text #7
ID : 9
Format : ASS
Codec ID : S_TEXT/ASS
Codec ID/Info : Advanced Sub Station Alpha
Duration : 12 min 25 s
Bit rate : 151 b/s
Count of elements : 208
Compression mode : Lossless
Stream size : 13.8 KiB (0%)
Title : Italiano
Language : Italian
Default : No
Forced : No

Text #8
ID : 10
Format : ASS
Codec ID : S_TEXT/ASS
Codec ID/Info : Advanced Sub Station Alpha
Duration : 12 min 25 s
Bit rate : 147 b/s
Count of elements : 208
Compression mode : Lossless
Stream size : 13.4 KiB (0%)
Title : Portugues_Brasil
Language : Portuguese
Default : No
Forced : No

Text #9
ID : 11
Format : ASS
Codec ID : S_TEXT/ASS
Codec ID/Info : Advanced Sub Station Alpha
Duration : 12 min 27 s
Bit rate : 191 b/s
Count of elements : 214
Compression mode : Lossless
Stream size : 17.5 KiB (0%)
Title : Russian
Language : Russian
Default : No
Forced : No


Screenshots

Sounan Desuka? (2019)

Sounan Desuka? (2019)

Sounan Desuka? (2019)


My publications | Rss Channel