Tags
Language
Tags

Souten no Ken: Regenesis (2018)

Posted By: Lebedev30
1080p (FullHD) / WEBRip IMDb
Souten no Ken: Regenesis (2018)

Souten no Ken: Regenesis (2018)
WEBRip | MKV | 1920x1080 | H264@4209 Kbps | 24x ~ 25mn | 24x ~600 Mb
日本語 AAC@128 Kbps | 2 channels | Subtitles: English, Español, Português, Русский
Genre: shounen


Description:
The year is 193X in Shanghai, the city where lives are valued least. The rivalry between the two factions controlling the underworld, the Green Gang and Red Flower Gang, reaches its peak and is nearing its end with a Green Gang victory. The individuals responsible for the revival of the Green Gang, Kasumi Kenshirou and Yu-Ling, are enjoying a brief rest from the conflict. Meanwhile, in Harbin, Liu Fei-yan and Erika Arendt are carefully transporting something. With their course set for Shanghai, they are headed to meet French intelligence officer Charles de Guise.








01. Successor to the Divine Fist of the North Star: Kasumi Kenshiro
02. Unattainable Desires
03. Bloodstained Death Bird Demon
04. Origin of the Divine Fist of the North Star
05. Grudge of the Hungry Wolf
06. Departing Swallow
07. Two Thousand Year Love
08. Battle of Destiny
09. Forgiver
10. The Young Successor
11. Heaven Dipper Sacred Yin Fist
12. Fists for Pengyou
01. God`s Chosen People
02. Admiration for a Brother
03. The Prophecy That Came True
04. Migadol`s Thunderbolts
05. Thoughts That Never Cross
06. The Setting Sun of the Nahash People
07. Men Who Scatter and Die
08. The Path of Kasumi Kenshin
09. Destined to Die Together
10. Life of the Successor
11. Erika Arendt, the Lone Girl
12. The Man Named Kasumi Kenshiro


General
Format : Matroska
Format version : Version 4 / Version 2
File size : 687 MiB
Duration : 22 min 7 s
Overall bit rate : 4 339 kb/s
Encoded date : UTC 2018-09-12 14:31:59
Writing application : mkvmerge v26.0.0 ('In The Game') 64-bit
Writing library : libebml v1.3.6 + libmatroska v1.4.9

Video
ID : 1
Format : AVC
Format/Info : Advanced Video Codec
Format profile : High@L4
Format settings : CABAC / 4 Ref Frames
Format settings, CABAC : Yes
Format settings, RefFrames : 4 frames
Codec ID : V_MPEG4/ISO/AVC
Duration : 22 min 7 s
Bit rate : 4 209 kb/s
Width : 1 920 pixels
Height : 1 080 pixels
Display aspect ratio : 16:9
Frame rate mode : Constant
Frame rate : 23.976 (24000/1001) FPS
Color space : YUV
Chroma subsampling : 4:2:0
Bit depth : 8 bits
Scan type : Progressive
Bits/(Pixel*Frame) : 0.085
Stream size : 666 MiB (97%)
Writing library : x264 core 142
Encoding settings : cabac=1 / ref=4 / deblock=1:1:1 / analyse=0x3:0x113 / me=umh / subme=8 / psy=1 / psy_rd=0.40:0.00 / mixed_ref=1 / me_range=16 / chroma_me=1 / trellis=1 / 8x8dct=1 / cqm=0 / deadzone=21,11 / fast_pskip=1 / chroma_qp_offset=-2 / threads=12 / lookahead_threads=2 / sliced_threads=0 / nr=0 / decimate=1 / interlaced=0 / bluray_compat=0 / constrained_intra=0 / bframes=3 / b_pyramid=2 / b_adapt=2 / b_bias=0 / direct=3 / weightb=1 / open_gop=0 / weightp=2 / keyint=48 / keyint_min=24 / scenecut=40 / intra_refresh=0 / rc_lookahead=48 / rc=crf / mbtree=1 / crf=15.0 / qcomp=0.60 / qpmin=0 / qpmax=69 / qpstep=4 / vbv_maxrate=8000 / vbv_bufsize=12000 / crf_max=0.0 / nal_hrd=none / filler=0 / ip_ratio=1.40 / aq=1:0.60
Language : Japanese
Default : Yes
Forced : No

Audio
ID : 2
Format : AAC
Format/Info : Advanced Audio Codec
Format profile : LC
Codec ID : A_AAC-2
Duration : 22 min 7 s
Bit rate : 128 kb/s
Channel(s) : 2 channels
Channel positions : Front: L R
Sampling rate : 44.1 kHz
Frame rate : 43.066 FPS (1024 SPF)
Compression mode : Lossy
Delay relative to video : -83 ms
Stream size : 20.3 MiB (3%)
Language : Japanese
Default : Yes
Forced : No

Text #1
ID : 3
Format : ASS
Codec ID : S_TEXT/ASS
Codec ID/Info : Advanced Sub Station Alpha
Duration : 21 min 59 s
Bit rate : 79 b/s
Count of elements : 203
Compression mode : Lossless
Stream size : 12.8 KiB (0%)
Title : English(US)
Language : English
Default : Yes
Forced : No

Text #2
ID : 4
Format : ASS
Codec ID : S_TEXT/ASS
Codec ID/Info : Advanced Sub Station Alpha
Duration : 21 min 59 s
Bit rate : 78 b/s
Count of elements : 194
Compression mode : Lossless
Stream size : 12.7 KiB (0%)
Title : Espanol
Language : Spanish
Default : No
Forced : No

Text #3
ID : 5
Format : ASS
Codec ID : S_TEXT/ASS
Codec ID/Info : Advanced Sub Station Alpha
Duration : 21 min 59 s
Bit rate : 80 b/s
Count of elements : 197
Compression mode : Lossless
Stream size : 12.9 KiB (0%)
Title : Portugues(Brasil)
Language : Portuguese
Default : No
Forced : No

Text #4
ID : 6
Format : ASS
Codec ID : S_TEXT/ASS
Codec ID/Info : Advanced Sub Station Alpha
Duration : 21 min 59 s
Bit rate : 102 b/s
Count of elements : 206
Compression mode : Lossless
Stream size : 16.5 KiB (0%)
Language : Russian
Default : No
Forced : No


Screenshots

Souten no Ken: Regenesis (2018)

Souten no Ken: Regenesis (2018)

Souten no Ken: Regenesis (2018)


My publications | Rss Channel