Tags
Language
Tags

Shiyan Pin Jiating (2018)

Posted By: Lebedev30
1080p (FullHD) / WEBRip IMDb
Shiyan Pin Jiating (2018)

Shiyan Pin Jiating (2018)
WEBRip | MKV | 1920x1080 | H264@5304 Kbps | 12x ~ 25mn | 12x ~900 Mb
日本語 AAC@128 Kbps | 2 channels | Subtitles: English, Español, Português, Русский, Italiano, Deutsch, Français
Genre: daily life, genetic modification, half-length episodes, human enhancement, science fiction


Description:
Tanisu's parents are mad scientists who live outside of normal society. They locked up their own children up on an isolated island and did experiments on them in secret, turning Tanisu's older brother and three older sisters into strange creatures. One day, their parents were arrested, and the siblings were moved to another island by the welfare office. The trouble is that none of the siblings except Tanisu know how to interact in modern day society…






01. Family
02. Heartbeat
03. Reality
04. Homing
05. Infiltration
06. Monster
07. Sisters
08. Observation
09. Nature
10. Split
11. Scales
12. Frankenstein Family


General
Format : Matroska
Format version : Version 4 / Version 2
File size : 925 MiB
Duration : 23 min 47 s
Overall bit rate : 5 435 kb/s
Encoded date : UTC 2018-10-15 21:40:08
Writing application : mkvmerge v27.0.0 ('Metropolis') 64-bit
Writing library : libebml v1.3.6 + libmatroska v1.4.9

Video
ID : 1
Format : AVC
Format/Info : Advanced Video Codec
Format profile : High@L4
Format settings : CABAC / 4 Ref Frames
Format settings, CABAC : Yes
Format settings, RefFrames : 4 frames
Codec ID : V_MPEG4/ISO/AVC
Duration : 23 min 46 s
Bit rate : 5 304 kb/s
Width : 1 920 pixels
Height : 1 080 pixels
Display aspect ratio : 16:9
Frame rate mode : Constant
Frame rate : 23.976 (24000/1001) FPS
Color space : YUV
Chroma subsampling : 4:2:0
Bit depth : 8 bits
Scan type : Progressive
Bits/(Pixel*Frame) : 0.107
Stream size : 902 MiB (98%)
Writing library : x264 core 142
Encoding settings : cabac=1 / ref=4 / deblock=1:1:1 / analyse=0x3:0x113 / me=umh / subme=8 / psy=1 / psy_rd=0.40:0.00 / mixed_ref=1 / me_range=16 / chroma_me=1 / trellis=1 / 8x8dct=1 / cqm=0 / deadzone=21,11 / fast_pskip=1 / chroma_qp_offset=-2 / threads=12 / lookahead_threads=2 / sliced_threads=0 / nr=0 / decimate=1 / interlaced=0 / bluray_compat=0 / constrained_intra=0 / bframes=3 / b_pyramid=2 / b_adapt=2 / b_bias=0 / direct=3 / weightb=1 / open_gop=0 / weightp=2 / keyint=48 / keyint_min=24 / scenecut=40 / intra_refresh=0 / rc_lookahead=48 / rc=crf / mbtree=1 / crf=15.0 / qcomp=0.60 / qpmin=0 / qpmax=69 / qpstep=4 / vbv_maxrate=8000 / vbv_bufsize=12000 / crf_max=0.0 / nal_hrd=none / filler=0 / ip_ratio=1.40 / aq=1:0.60
Language : Japanese
Default : Yes
Forced : No

Audio
ID : 2
Format : AAC
Format/Info : Advanced Audio Codec
Format profile : LC
Codec ID : A_AAC-2
Duration : 23 min 47 s
Bit rate : 128 kb/s
Channel(s) : 2 channels
Channel positions : Front: L R
Sampling rate : 44.1 kHz
Frame rate : 43.066 FPS (1024 SPF)
Compression mode : Lossy
Delay relative to video : -83 ms
Stream size : 21.8 MiB (2%)
Language : Japanese
Default : Yes
Forced : No

Text #1
ID : 3
Format : ASS
Codec ID : S_TEXT/ASS
Codec ID/Info : Advanced Sub Station Alpha
Duration : 23 min 46 s
Bit rate : 136 b/s
Count of elements : 399
Compression mode : Lossless
Stream size : 23.8 KiB (0%)
Title : English(US)
Language : English
Default : Yes
Forced : No

Text #2
ID : 4
Format : ASS
Codec ID : S_TEXT/ASS
Codec ID/Info : Advanced Sub Station Alpha
Duration : 23 min 46 s
Bit rate : 156 b/s
Count of elements : 410
Compression mode : Lossless
Stream size : 27.2 KiB (0%)
Title : Deutsch
Language : German
Default : No
Forced : No

Text #3
ID : 5
Format : ASS
Codec ID : S_TEXT/ASS
Codec ID/Info : Advanced Sub Station Alpha
Duration : 23 min 46 s
Bit rate : 121 b/s
Count of elements : 363
Compression mode : Lossless
Stream size : 21.2 KiB (0%)
Title : Espanol(Espana)
Language : Spanish
Default : No
Forced : No

Text #4
ID : 6
Format : ASS
Codec ID : S_TEXT/ASS
Codec ID/Info : Advanced Sub Station Alpha
Duration : 23 min 46 s
Bit rate : 122 b/s
Count of elements : 366
Compression mode : Lossless
Stream size : 21.4 KiB (0%)
Title : Espanol
Language : Spanish
Default : No
Forced : No

Text #5
ID : 7
Format : ASS
Codec ID : S_TEXT/ASS
Codec ID/Info : Advanced Sub Station Alpha
Duration : 23 min 41 s
Bit rate : 120 b/s
Count of elements : 305
Compression mode : Lossless
Stream size : 21.0 KiB (0%)
Title : Francais(France)
Language : French
Default : No
Forced : No

Text #6
ID : 8
Format : ASS
Codec ID : S_TEXT/ASS
Codec ID/Info : Advanced Sub Station Alpha
Duration : 23 min 46 s
Bit rate : 144 b/s
Count of elements : 401
Compression mode : Lossless
Stream size : 25.2 KiB (0%)
Title : Italiano
Language : Italian
Default : No
Forced : No

Text #7
ID : 9
Format : ASS
Codec ID : S_TEXT/ASS
Codec ID/Info : Advanced Sub Station Alpha
Duration : 23 min 46 s
Bit rate : 154 b/s
Count of elements : 398
Compression mode : Lossless
Stream size : 27.0 KiB (0%)
Title : Portugues(Brasil)
Language : Portuguese
Default : No
Forced : No

Text #8
ID : 10
Format : ASS
Codec ID : S_TEXT/ASS
Codec ID/Info : Advanced Sub Station Alpha
Duration : 23 min 46 s
Bit rate : 198 b/s
Count of elements : 415
Compression mode : Lossless
Stream size : 34.6 KiB (0%)
Language : Russian
Default : No
Forced : No


Screenshots

Shiyan Pin Jiating (2018)

Shiyan Pin Jiating (2018)

Shiyan Pin Jiating (2018)


My publications | Rss Channel