Tags
Language
Tags

Shoukoku no Altair (2017)

Posted By: Lebedev30
1080p (FullHD) / WEBRip
Shoukoku no Altair (2017)

Shoukoku no Altair (2017)
WEBRip | MKV | 1920x1080 | H264@4760 Kbps | 24x ~ 25mn | 24x ~800 Mb - 1 Gb
日本語 E-AC-3@224 Kbps | 2 channels | Subtitles: English, Español, Português, Italiano, Deutsch, Français
Genre: action, fantasy, shounen


Description:
* Based on Katou Kotono's shounen manga series.

Mahmut is a young Pasha serving on the council of the Türkiye Stratocracy. The clouds of war are gathering over his country as the threat of the aggressive Empire looms large. With Türkiye's council split between the warmongers and the pacifists, Mahmut begins his quest to keep the peace at any cost. As he finds himself drawn deeper and deeper in the politics of the ancient world, new enemies and allies surface. Who will prevail? What will Mahmut do if war proves to be inevitable?




01. The Golden Eagle General
02. The Citadel City
03. The Council of Generals
04. The Eagle`s Joint Struggle
05. The City of the Lighthouse
06. The Iron Chains
07. The Sinking City
08. Masquerade of Sincerity
09. The Red Tiger Sultan
10. Dance of the Moonlit Beauty
11. The Prince of Swords
12. Battle at the Unusual Rock Formations
13. Conclusion of the Civil War
14. The Caravan Daughter
15. The Northern Kingdom
16. Beginning of the Great War
17. The Flower`s Plan
18. Wishing on Stars
19. The Cage of Paradise
20. Distant Funeral Bells
21. Alliance Against the Empire
22. Golden Eagle`s Pursuit
23. The End of Paradise
24. Instigation


General
Format : Matroska
Format version : Version 4 / Version 2
File size : 857 MiB
Duration : 24 min 2 s
Overall bit rate : 4 987 kb/s
Encoded date : UTC 2018-09-13 19:10:26
Writing application : mkvmerge v26.0.0 ('In The Game') 64-bit
Writing library : libebml v1.3.6 + libmatroska v1.4.9

Video
ID : 1
Format : AVC
Format/Info : Advanced Video Codec
Format profile : High 4:4:4 Predictive@L5.1
Format settings : CABAC / 16 Ref Frames
Format settings, CABAC : Yes
Format settings, RefFrames : 16 frames
Codec ID : V_MPEG4/ISO/AVC
Duration : 24 min 2 s
Bit rate : 4 760 kb/s
Width : 1 920 pixels
Height : 1 080 pixels
Display aspect ratio : 16:9
Frame rate mode : Constant
Frame rate : 23.976 (24000/1001) FPS
Color space : YUV
Chroma subsampling : 4:4:4
Bit depth : 10 bits
Scan type : Progressive
Bits/(Pixel*Frame) : 0.096
Stream size : 818 MiB (95%)
Writing library : x264 core 148 r2762+56 6284cf3 t_mod_Custom [10-bit@all X86_64]
Encoding settings : cabac=1 / ref=16 / deblock=1:1:1 / analyse=0x3:0x133 / me=esa / subme=11 / psy=1 / fade_compensate=0.00 / psy_rd=0.40:0.00 / mixed_ref=1 / me_range=24 / chroma_me=1 / trellis=2 / 8x8dct=1 / cqm=0 / deadzone=21,11 / fast_pskip=1 / chroma_qp_offset=4 / threads=12 / lookahead_threads=3 / sliced_threads=0 / nr=0 / decimate=1 / interlaced=0 / bluray_compat=0 / constrained_intra=0 / fgo=0 / bframes=16 / b_pyramid=2 / b_adapt=2 / b_bias=0 / direct=3 / weightb=1 / open_gop=1 / weightp=2 / keyint=250 / keyint_min=23 / scenecut=40 / intra_refresh=0 / rc_lookahead=60 / rc=crf / mbtree=1 / crf=14.0000 / qcomp=0.60 / qpmin=0:0:0 / qpmax=81:81:81 / qpstep=4 / vbv_maxrate=960000 / vbv_bufsize=960000 / crf_max=0.0 / nal_hrd=none / filler=0 / ip_ratio=1.40 / aq=3:0.60 / aq-sensitivity=10.00 / aq-factor=1.00:1.00:1.00 / aq2=0 / aq3=0
Language : Japanese
Default : Yes
Forced : No
Color range : Limited
Color primaries : BT.709
Transfer characteristics : BT.709
Matrix coefficients : BT.709

Audio
ID : 2
Format : E-AC-3
Format/Info : Enhanced Audio Coding 3
Codec ID : A_EAC3
Duration : 24 min 2 s
Bit rate mode : Constant
Bit rate : 224 kb/s
Channel(s) : 2 channels
Channel positions : Front: L R
Sampling rate : 48.0 kHz
Frame rate : 187.500 FPS (256 SPF)
Compression mode : Lossy
Stream size : 38.5 MiB (4%)
Language : Japanese
Service kind : Complete Main
Default : Yes
Forced : No

Text #1
ID : 3
Format : ASS
Codec ID : S_TEXT/ASS
Codec ID/Info : Advanced Sub Station Alpha
Duration : 23 min 58 s
Bit rate : 96 b/s
Count of elements : 297
Compression mode : Lossless
Stream size : 17.0 KiB (0%)
Language : English
Default : Yes
Forced : No

Text #2
ID : 4
Format : ASS
Codec ID : S_TEXT/ASS
Codec ID/Info : Advanced Sub Station Alpha
Duration : 23 min 58 s
Bit rate : 97 b/s
Count of elements : 297
Compression mode : Lossless
Stream size : 17.2 KiB (0%)
Language : Spanish
Default : No
Forced : No

Text #3
ID : 5
Format : ASS
Codec ID : S_TEXT/ASS
Codec ID/Info : Advanced Sub Station Alpha
Duration : 23 min 58 s
Bit rate : 100 b/s
Count of elements : 297
Compression mode : Lossless
Stream size : 17.7 KiB (0%)
Language : Spanish
Default : No
Forced : No

Text #4
ID : 6
Format : ASS
Codec ID : S_TEXT/ASS
Codec ID/Info : Advanced Sub Station Alpha
Duration : 23 min 58 s
Bit rate : 103 b/s
Count of elements : 297
Compression mode : Lossless
Stream size : 18.2 KiB (0%)
Language : French
Default : No
Forced : No

Text #5
ID : 7
Format : ASS
Codec ID : S_TEXT/ASS
Codec ID/Info : Advanced Sub Station Alpha
Duration : 23 min 59 s
Bit rate : 90 b/s
Count of elements : 258
Compression mode : Lossless
Stream size : 16.0 KiB (0%)
Language : German
Default : No
Forced : No

Text #6
ID : 8
Format : ASS
Codec ID : S_TEXT/ASS
Codec ID/Info : Advanced Sub Station Alpha
Duration : 23 min 58 s
Bit rate : 93 b/s
Count of elements : 297
Compression mode : Lossless
Stream size : 16.5 KiB (0%)
Language : Italian
Default : No
Forced : No

Text #7
ID : 9
Format : ASS
Codec ID : S_TEXT/ASS
Codec ID/Info : Advanced Sub Station Alpha
Duration : 23 min 58 s
Bit rate : 97 b/s
Count of elements : 294
Compression mode : Lossless
Stream size : 17.0 KiB (0%)
Language : Portuguese
Default : No
Forced : No


Screenshots

Shoukoku no Altair (2017)

Shoukoku no Altair (2017)

Shoukoku no Altair (2017)


My publications | Rss Channel