Tags
Language
Tags

Slow Start (2018)

Posted By: Lebedev30
1080p (FullHD) / WEBRip IMDb
Slow Start (2018)

Slow Start (2018)
WEBRip | MKV | 1920x1080 | H264@4411 Kbps | 12x ~ 25mn | 12x ~750 Mb
日本語 AAC@128 Kbps | 2 channels | Subtitles: English, Español, Português
Genre: comedy, daily life, high school, school life, seinen


Description:
* Based on a 4-koma seinen manga written and illustrated by Tokumi Yuiko.

Ichinose Hana is a very shy and introverted girl about to start high school in the spring. After moving away from her parent's house in the city due to unforeseen circumstances, she decides to live at an apartment managed by her cousin, Shion, called Temari Heights.

A new school, new life, and wonderful new friendships. As Hana gradually opens her heart to the people around her, her life begins to unfold with exciting and cheerful moments. From playing around like children to feeling anxious like an adult…






01. The First Butterflies
02. Exercise Wears Me Out
03. Teardrops Are Falling
04. The Premium Tournament on the Second Floor
05. Kamuri`s Fluffy
06. Sliminess of an Eel
07. Cuffed Wrists
08. Hana`s Friends
09. Gorilla in a Swimsuit
10. The Shark`s Cousin
11. Tomato Festival
12. Starting Slow


General
Format : Matroska
Format version : Version 4 / Version 2
File size : 772 MiB
Duration : 23 min 46 s
Overall bit rate : 4 537 kb/s
Encoded date : UTC 2018-01-06 18:06:23
Writing application : mkvmerge v12.0.0 ('Trust / Lust') 64bit
Writing library : libebml v1.3.4 + libmatroska v1.4.5

Video
ID : 1
Format : AVC
Format/Info : Advanced Video Codec
Format profile : High@L4
Format settings : CABAC / 4 Ref Frames
Format settings, CABAC : Yes
Format settings, RefFrames : 4 frames
Codec ID : V_MPEG4/ISO/AVC
Duration : 23 min 44 s
Bit rate : 4 411 kb/s
Width : 1 920 pixels
Height : 1 080 pixels
Display aspect ratio : 16:9
Frame rate mode : Constant
Frame rate : 23.976 (24000/1001) FPS
Color space : YUV
Chroma subsampling : 4:2:0
Bit depth : 8 bits
Scan type : Progressive
Bits/(Pixel*Frame) : 0.089
Stream size : 749 MiB (97%)
Writing library : x264 core 142
Encoding settings : cabac=1 / ref=4 / deblock=1:1:1 / analyse=0x3:0x113 / me=umh / subme=8 / psy=1 / psy_rd=0.40:0.00 / mixed_ref=1 / me_range=16 / chroma_me=1 / trellis=1 / 8x8dct=1 / cqm=0 / deadzone=21,11 / fast_pskip=1 / chroma_qp_offset=-2 / threads=12 / lookahead_threads=2 / sliced_threads=0 / nr=0 / decimate=1 / interlaced=0 / bluray_compat=0 / constrained_intra=0 / bframes=3 / b_pyramid=2 / b_adapt=2 / b_bias=0 / direct=3 / weightb=1 / open_gop=0 / weightp=2 / keyint=48 / keyint_min=24 / scenecut=40 / intra_refresh=0 / rc_lookahead=48 / rc=crf / mbtree=1 / crf=15.0 / qcomp=0.60 / qpmin=0 / qpmax=69 / qpstep=4 / vbv_maxrate=8000 / vbv_bufsize=12000 / crf_max=0.0 / nal_hrd=none / filler=0 / ip_ratio=1.40 / aq=1:0.60
Default : Yes
Forced : No

Audio
ID : 2
Format : AAC
Format/Info : Advanced Audio Codec
Format profile : LC
Codec ID : A_AAC-2
Duration : 23 min 45 s
Bit rate : 128 kb/s
Channel(s) : 2 channels
Channel positions : Front: L R
Sampling rate : 44.1 kHz
Frame rate : 43.066 FPS (1024 SPF)
Compression mode : Lossy
Delay relative to video : -83 ms
Stream size : 21.7 MiB (3%)
Default : Yes
Forced : No

Text #1
ID : 3
Format : ASS
Codec ID : S_TEXT/ASS
Codec ID/Info : Advanced Sub Station Alpha
Duration : 23 min 23 s
Bit rate : 151 b/s
Count of elements : 402
Compression mode : Lossless
Stream size : 26.0 KiB (0%)
Title : English(US)
Language : English
Default : Yes
Forced : No

Text #2
ID : 4
Format : ASS
Codec ID : S_TEXT/ASS
Codec ID/Info : Advanced Sub Station Alpha
Duration : 23 min 46 s
Bit rate : 122 b/s
Count of elements : 362
Compression mode : Lossless
Stream size : 21.4 KiB (0%)
Title : Espaأ±ol
Language : Spanish
Default : No
Forced : No

Text #3
ID : 5
Format : ASS
Codec ID : S_TEXT/ASS
Codec ID/Info : Advanced Sub Station Alpha
Duration : 23 min 33 s
Bit rate : 146 b/s
Count of elements : 405
Compression mode : Lossless
Stream size : 25.2 KiB (0%)
Title : Portuguأھs(Brasil)
Language : Portuguese
Default : No
Forced : No


Screenshots

Slow Start (2018)

Slow Start (2018)

Slow Start (2018)


My publications | Rss Channel