Tags
Language
Tags
March 2024
Su Mo Tu We Th Fr Sa
25 26 27 28 29 1 2
3 4 5 6 7 8 9
10 11 12 13 14 15 16
17 18 19 20 21 22 23
24 25 26 27 28 29 30
31 1 2 3 4 5 6
Attention❗ To save your time, in order to download anything on this site, you must be registered 👉 HERE. If you do not have a registration yet, it is better to do it right away. ✌

( • )( • ) ( ͡⚆ ͜ʖ ͡⚆ ) (‿ˠ‿)
SpicyMags.xyz

Sousei no Onmyouji (2016-2017)

Posted By: Lebedev30
1080p (FullHD) / WEBRip IMDb
Sousei no Onmyouji (2016-2017)

Sousei no Onmyouji (2016-2017)
WEBRip | MKV | 1920x1080 | H264@7296 Kbps | 50x ~ 25mn | 50x ~1.2 Gb
日本語 AAC@128 Kbps | 2 channels | Subtitles: العربية, English, Español, Português, Русский, Italiano, Deutsch, Français
Genre: action, comedy, contemporary fantasy, fantasy, horror, romance, shounen, sudden girlfriend appearance, super power


Description:
Rokuro is from a family of exorcists who remove the evil Kegare, but his real dream is to be a singer, a soccer player, or anything other than an exorcist. When another exorcist name Benio arrives, Rokuro is suddenly inflamed with competitive spirit and decides to put his natural knack to good use. Their rivalry gets more complicated when they both learn they are the destined "Twin Star Exorcists," two ultimate fighters fated to marry and create the prophesied child who will eliminate all the Kegare in the world.






01. The Destined Two: Boy Meets Girl
02. Intersection of Twin Stars: A Fateful Fight
03. Differing Intentions: A Hero`s Worth
04. The Sound of Magano: Bothersome Twosome
05. Twelve Guardians, Vermilion Bird: The Guardian Shimon
06. Benio and Mayura: Girls` Party
07. A New Trial: Unbelievable Game
08. Rokuro`s Feelings: Shocking Confession
09. Intertwining Tragedies: Tragedy Comes with Smile
10. Subaru`s Training: The Bewitching Guardian
11. Do Your Best, Newlyweds: Fantastic Moments
12. Give Me a Break: Basara Boy Kamui
13. Your Courage, My Courage: Zero Millimeters Apart
14. Yukatas, Stars, and Wishes: Tanabata Special
15. Goodbye to Being Alone: The Awakening of Love
16. As an Exorcist: Salvation Then Wailing
17. The Red Emblem Master Gave Me: New Talisman from Master
18. On the Eve of Battle: Triumph over Fear
19. Both Sin and Impurity: The 10 Seconds Decision
20. Our Path: To the Future with Us Two
21. Rebirth of the Twin Stars: Sweetie Fairy
22. It`s Impure, Y`Know? Philosophical Filthy Seraphim
23. Westward, Twin Stars: Hard to Be Mother
24. The Kegare`s Dream: What Is Beautiful?
25. Celestial Avatar: Come Back! Southpaw
26. Twin Stars vs Twins: Basara Twins` Strings
27. Mayura-chan`s Secret: Mayura`s Secret Lesson
28. Unomiya Tenma: Transcendence
29. A Promise with Sae: Missing Exorcist Master
30. Forever Smiling: Lovely Smile Forever
31. Because I`m with You: Wai Wa Kinako Ya!
32. Into Chaos: Seeking the Past, Seeking the Future
33. The Master Repays a Favor: I Want You to Eat Me
34. The Greatest Duo?! Wachi vs Washi & Watashi
35. The Puppeteer`s Revenge: I Am Not Alone
36. What Must Be Protected: What Is Really Important?
37. Spirits Soaring in the City of Romance: Tell Me Honest Feelings
38. Narukami`s Most Ill-Fated Day: No Way to Run, No Place to Hide
39. The Sacred Beast of Love: Daughter`s Fight! Father`s Delight
40. Twin Stars` Hearts Dance: Finally They Kissed?
41. The Twelve Guardians Fall! Have A Nice Nightmare, 12 Guardians
42. I Come from Magano: Say It Ain`t So, Rokuro!
43. The Millennial Dream: Melancholic Misanthrope
44. Distanced Despite Their Love: Farewell, My Precious
45. The Couple Alone: Lonely Twin Exorcist
46. Yuto: Destiny
47. Benio: Positive
48. Unity: Solidarity
49. Revival: Restoration
50. Twin Stars: Twins


General
Format : Matroska
Format version : Version 4 / Version 2
File size : 1.25 GiB
Duration : 24 min 12 s
Overall bit rate : 7 422 kb/s
Encoded date : UTC 2019-03-10 16:16:24
Writing application : mkvmerge v26.0.0 ('In The Game') 64-bit
Writing library : libebml v1.3.6 + libmatroska v1.4.9

Video
ID : 1
Format : AVC
Format/Info : Advanced Video Codec
Format profile : High@L4
Format settings : CABAC / 4 Ref Frames
Format settings, CABAC : Yes
Format settings, RefFrames : 4 frames
Codec ID : V_MPEG4/ISO/AVC
Duration : 24 min 10 s
Bit rate : 7 296 kb/s
Width : 1 920 pixels
Height : 1 080 pixels
Display aspect ratio : 16:9
Frame rate mode : Constant
Frame rate : 23.976 (24000/1001) FPS
Color space : YUV
Chroma subsampling : 4:2:0
Bit depth : 8 bits
Scan type : Progressive
Bits/(Pixel*Frame) : 0.147
Stream size : 1.23 GiB (98%)
Writing library : x264 core 142
Encoding settings : cabac=1 / ref=4 / deblock=1:1:1 / analyse=0x3:0x113 / me=umh / subme=8 / psy=1 / psy_rd=0.40:0.00 / mixed_ref=1 / me_range=16 / chroma_me=1 / trellis=1 / 8x8dct=1 / cqm=0 / deadzone=21,11 / fast_pskip=1 / chroma_qp_offset=-2 / threads=12 / lookahead_threads=2 / sliced_threads=0 / nr=0 / decimate=1 / interlaced=0 / bluray_compat=0 / constrained_intra=0 / bframes=3 / b_pyramid=2 / b_adapt=2 / b_bias=0 / direct=3 / weightb=1 / open_gop=0 / weightp=2 / keyint=48 / keyint_min=24 / scenecut=40 / intra_refresh=0 / rc_lookahead=48 / rc=crf / mbtree=1 / crf=15.0 / qcomp=0.60 / qpmin=0 / qpmax=69 / qpstep=4 / vbv_maxrate=8000 / vbv_bufsize=12000 / crf_max=0.0 / nal_hrd=none / filler=0 / ip_ratio=1.40 / aq=1:0.60
Default : Yes
Forced : No

Audio
ID : 2
Format : AAC
Format/Info : Advanced Audio Codec
Format profile : LC
Codec ID : A_AAC-2
Duration : 24 min 10 s
Bit rate : 128 kb/s
Channel(s) : 2 channels
Channel positions : Front: L R
Sampling rate : 44.1 kHz
Frame rate : 43.066 FPS (1024 SPF)
Compression mode : Lossy
Delay relative to video : -83 ms
Stream size : 22.1 MiB (2%)
Default : Yes
Forced : No

Text #1
ID : 3
Format : ASS
Codec ID : S_TEXT/ASS
Codec ID/Info : Advanced Sub Station Alpha
Duration : 23 min 42 s
Bit rate : 108 b/s
Count of elements : 280
Compression mode : Lossless
Stream size : 18.8 KiB (0%)
Title : English(US)
Language : English
Default : Yes
Forced : No

Text #2
ID : 4
Format : ASS
Codec ID : S_TEXT/ASS
Codec ID/Info : Advanced Sub Station Alpha
Duration : 23 min 44 s
Bit rate : 131 b/s
Count of elements : 283
Compression mode : Lossless
Stream size : 22.8 KiB (0%)
Title : Arabic
Language : Arabic
Default : No
Forced : No

Text #3
ID : 5
Format : ASS
Codec ID : S_TEXT/ASS
Codec ID/Info : Advanced Sub Station Alpha
Duration : 23 min 42 s
Bit rate : 103 b/s
Count of elements : 319
Compression mode : Lossless
Stream size : 18.0 KiB (0%)
Title : Deutsch
Language : German
Default : No
Forced : No

Text #4
ID : 6
Format : ASS
Codec ID : S_TEXT/ASS
Codec ID/Info : Advanced Sub Station Alpha
Duration : 23 min 42 s
Bit rate : 93 b/s
Count of elements : 266
Compression mode : Lossless
Stream size : 16.2 KiB (0%)
Title : Espanol(Espana)
Language : Spanish
Default : No
Forced : No

Text #5
ID : 7
Format : ASS
Codec ID : S_TEXT/ASS
Codec ID/Info : Advanced Sub Station Alpha
Duration : 23 min 42 s
Bit rate : 93 b/s
Count of elements : 267
Compression mode : Lossless
Stream size : 16.2 KiB (0%)
Title : Espanol
Language : Spanish
Default : No
Forced : No

Text #6
ID : 8
Format : ASS
Codec ID : S_TEXT/ASS
Codec ID/Info : Advanced Sub Station Alpha
Duration : 23 min 42 s
Bit rate : 111 b/s
Count of elements : 328
Compression mode : Lossless
Stream size : 19.4 KiB (0%)
Title : Francais(France)
Language : French
Default : No
Forced : No

Text #7
ID : 9
Format : ASS
Codec ID : S_TEXT/ASS
Codec ID/Info : Advanced Sub Station Alpha
Duration : 23 min 42 s
Bit rate : 115 b/s
Count of elements : 282
Compression mode : Lossless
Stream size : 20.0 KiB (0%)
Title : Italiano
Language : Italian
Default : No
Forced : No

Text #8
ID : 10
Format : ASS
Codec ID : S_TEXT/ASS
Codec ID/Info : Advanced Sub Station Alpha
Duration : 23 min 42 s
Bit rate : 102 b/s
Count of elements : 277
Compression mode : Lossless
Stream size : 17.8 KiB (0%)
Title : Portugues(Brasil)
Language : Portuguese
Default : No
Forced : No

Text #9
ID : 11
Format : ASS
Codec ID : S_TEXT/ASS
Codec ID/Info : Advanced Sub Station Alpha
Duration : 23 min 42 s
Bit rate : 143 b/s
Count of elements : 282
Compression mode : Lossless
Stream size : 24.9 KiB (0%)
Title : Russian
Language : Russian
Default : No
Forced : No


Screenshots

Sousei no Onmyouji (2016-2017)

Sousei no Onmyouji (2016-2017)

Sousei no Onmyouji (2016-2017)


My publications | Rss Channel