Tags
Language
Tags

Starmyu (2015,2017,2019)

Posted By: Lebedev30
Starmyu (2015,2017,2019)

Starmyu (2015,2017,2019)
WEBRip | MKV | 1920x1080 | H264@8000 Kbps | 36x ~ 25mn | 36x ~800 Mb-1.3 Gb
日本語 AAC@253 Kbps | 2 channels | Subtitles: English
Genre: idol, music, performance, school life, the arts


Description:
Hoshitani Yuuta enters Ayana Academy, a school focusing on show business activities, specifically music. The academy has a group of three students with the highest grades in the musical department, and they are known as the Kao Kai (Cherry Blossom Flower Association). This organization stands at the top of the pecking order within the academy. The shortcut to entering the musical department is to enter the Star Frame class, which is directly taught by the members, and to be recognized by them. Unfortunately, due to their own problems, students Touru, Kaito, Kakeru, Shuu, and Yuuta are all struggling to even remain candidates for the musical department. By a stroke of luck, however, the five are spotted by Kao Kai member Ootori, and they attract his interest.










01. Episode 1
02. Episode 2
03. Episode 3
04. Episode 4
05. Episode 5
06. Episode 6
07. Episode 7
08. Episode 8
09. Episode 9
10. Episode 10
11. Episode 11
12. Episode 12
01. Episode 1
02. Episode 2
03. Episode 3
04. Episode 4
05. Episode 5
06. Episode 6
07. Episode 7
08. Episode 8
09. Episode 9
10. Episode 10
11. Episode 11
12. Episode 12
01. Episode 1
02. Episode 2
03. Episode 3
04. Episode 4
05. Episode 5
06. Episode 6
07. Episode 7
08. Episode 8
09. Episode 9
10. Episode 10
11. Episode 11
12. Episode 12


General
Format : Matroska
Format version : Version 4 / Version 2
File size : 1.36 GiB
Duration : 24 min 18 s
Overall bit rate : 7 998 kb/s
Encoded date : UTC 2019-09-30 02:18:06
Writing application : mkvmerge v34.0.0 ('Sight and Seen') 64-bit
Writing library : libebml v1.3.7 + libmatroska v1.5.0

Video
ID : 2
Format : AVC
Format/Info : Advanced Video Codec
Format profile : High@L4
Format settings : CABAC / 4 Ref Frames
Format settings, CABAC : Yes
Format settings, RefFrames : 4 frames
Codec ID : V_MPEG4/ISO/AVC
Duration : 24 min 18 s
Bit rate : 8 000 kb/s
Width : 1 920 pixels
Height : 1 080 pixels
Display aspect ratio : 16:9
Frame rate mode : Constant
Frame rate : 23.976 (24000/1001) FPS
Color space : YUV
Chroma subsampling : 4:2:0
Bit depth : 8 bits
Scan type : Progressive
Bits/(Pixel*Frame) : 0.161
Stream size : 1.31 GiB (97%)
Title : Funimation
Writing library : x264 core 150 r2833 df79067
Encoding settings : cabac=1 / ref=1 / deblock=1:0:0 / analyse=0x3:0x113 / me=hex / subme=7 / psy=1 / psy_rd=1.00:0.00 / mixed_ref=0 / me_range=16 / chroma_me=1 / trellis=1 / 8x8dct=1 / cqm=0 / deadzone=21,11 / fast_pskip=1 / chroma_qp_offset=-2 / threads=24 / lookahead_threads=4 / sliced_threads=0 / nr=0 / decimate=1 / interlaced=0 / bluray_compat=0 / constrained_intra=0 / bframes=2 / b_pyramid=2 / b_adapt=1 / b_bias=0 / direct=1 / weightb=1 / open_gop=0 / weightp=2 / keyint=48 / keyint_min=4 / scenecut=40 / intra_refresh=0 / rc_lookahead=40 / rc=cbr / mbtree=1 / bitrate=8000 / ratetol=1.0 / qcomp=0.60 / qpmin=0 / qpmax=69 / qpstep=4 / vbv_maxrate=8000 / vbv_bufsize=24000 / nal_hrd=none / filler=0 / ip_ratio=1.40 / aq=1:1.00
Default : Yes
Forced : No

Audio
ID : 3
Format : AAC
Format/Info : Advanced Audio Codec
Format profile : LC
Codec ID : A_AAC-2
Duration : 24 min 18 s
Bit rate : 253 kb/s
Channel(s) : 2 channels
Channel positions : Front: L R
Sampling rate : 48.0 kHz
Frame rate : 46.875 FPS (1024 SPF)
Compression mode : Lossy
Delay relative to video : -43 ms
Stream size : 44.1 MiB (3%)
Language : Japanese
Default : Yes
Forced : No

Text
ID : 1
Format : ASS
Codec ID : S_TEXT/ASS
Codec ID/Info : Advanced Sub Station Alpha
Duration : 22 min 37 s
Bit rate : 107 b/s
Count of elements : 319
Compression mode : Lossless
Stream size : 17.9 KiB (0%)
Language : English
Default : Yes
Forced : No


Screenshots

Starmyu (2015,2017,2019)

Starmyu (2015,2017,2019)

Starmyu (2015,2017,2019)


My publications | Rss Channel