Tags
Language
Tags

Suisei no Gargantia (2013)

Posted By: Lebedev30
Suisei no Gargantia (2013)

Suisei no Gargantia (2013)
WEBRip | MKV | 1280x720 | H264@3129 Kbps | 13x ~ 25mn | 13x ~550 Mb
日本語 AAC@128 Kbps | 2 channels | Subtitles: English, Español, Português
Genre: action, coming of age, genetic modification, gunfights, human enhancement, mecha, piloted robot, post-apocalyptic, robot helper, science fiction, seinen


Description:
The story begins in the distant future in the far reaches of the galaxy. The Human Galactic Alliance has been constantly fighting for its survival against a grotesque race of beings called Hideous. During an intense battle, the young lieutenant Ledo and his humanoid mobile weapon Chamber are swallowed up into a distortion of time and space.

Waking from his artificially induced hybernation, Ledo realises that he has arrived on Earth, the planet on the lost frontier. On this planet that was completely flooded by the seas, people live in fleets of giant ships, salvaging relics from the seas' depths in order to survive.

Ledo arrives on one of the fleets called Gargantia. With no knowledge of the planet's history or culture, he is forced to live alongside Amy, a 15-year-old girl who serves as a messenger aboard the Gargantia fleet. To Ledo, who has lived a life where he knows nothing but fighting, these days of peace continue to surprise him.






01. Castaway
02. The Planet of Origin
03. The Villainous Empress
04. The Flute of Recollection
05. Calm Day
06. Festival
07. A Soldier`s Fate
08. Separation
09. Deep Sea Secret
10. Island of Ambition
11. Supreme Ruler of Terror
12. Moment of Decision
13. Legend of the Verdurous Planet


General
Format : Matroska
Format version : Version 4 / Version 2
File size : 552 MiB
Duration : 23 min 40 s
Overall bit rate : 3 260 kb/s
Encoded date : UTC 2019-07-25 21:33:03
Writing application : mkvmerge v26.0.0 ('In The Game') 64-bit
Writing library : libebml v1.3.6 + libmatroska v1.4.9

Video
ID : 1
Format : AVC
Format/Info : Advanced Video Codec
Format profile : High@L4
Format settings : CABAC / 6 Ref Frames
Format settings, CABAC : Yes
Format settings, RefFrames : 6 frames
Codec ID : V_MPEG4/ISO/AVC
Duration : 23 min 40 s
Bit rate : 3 129 kb/s
Width : 1 280 pixels
Height : 720 pixels
Display aspect ratio : 16:9
Frame rate mode : Constant
Frame rate : 23.976 (24000/1001) FPS
Color space : YUV
Chroma subsampling : 4:2:0
Bit depth : 8 bits
Scan type : Progressive
Bits/(Pixel*Frame) : 0.142
Stream size : 530 MiB (96%)
Writing library : x264 core 142
Encoding settings : cabac=1 / ref=6 / deblock=1:1:1 / analyse=0x3:0x113 / me=umh / subme=8 / psy=1 / psy_rd=0.40:0.00 / mixed_ref=1 / me_range=16 / chroma_me=1 / trellis=1 / 8x8dct=1 / cqm=0 / deadzone=21,11 / fast_pskip=1 / chroma_qp_offset=-2 / threads=10 / lookahead_threads=1 / sliced_threads=0 / nr=0 / decimate=1 / interlaced=0 / bluray_compat=0 / constrained_intra=0 / bframes=3 / b_pyramid=2 / b_adapt=2 / b_bias=0 / direct=3 / weightb=1 / open_gop=0 / weightp=2 / keyint=48 / keyint_min=24 / scenecut=40 / intra_refresh=0 / rc_lookahead=48 / rc=crf / mbtree=1 / crf=15.0 / qcomp=0.60 / qpmin=0 / qpmax=69 / qpstep=4 / vbv_maxrate=4000 / vbv_bufsize=6000 / crf_max=0.0 / nal_hrd=none / filler=0 / ip_ratio=1.40 / aq=1:0.60
Default : Yes
Forced : No

Audio
ID : 2
Format : AAC
Format/Info : Advanced Audio Codec
Format profile : LC
Codec ID : A_AAC-2
Duration : 23 min 40 s
Bit rate : 128 kb/s
Channel(s) : 2 channels
Channel positions : Front: L R
Sampling rate : 44.1 kHz
Frame rate : 43.066 FPS (1024 SPF)
Compression mode : Lossy
Delay relative to video : -83 ms
Stream size : 21.7 MiB (4%)
Default : Yes
Forced : No

Text #1
ID : 3
Format : ASS
Codec ID : S_TEXT/ASS
Codec ID/Info : Advanced Sub Station Alpha
Duration : 22 min 6 s
Bit rate : 155 b/s
Count of elements : 355
Compression mode : Lossless
Stream size : 25.2 KiB (0%)
Title : English(US)
Language : English
Default : Yes
Forced : No

Text #2
ID : 4
Format : ASS
Codec ID : S_TEXT/ASS
Codec ID/Info : Advanced Sub Station Alpha
Duration : 22 min 6 s
Bit rate : 163 b/s
Count of elements : 360
Compression mode : Lossless
Stream size : 26.4 KiB (0%)
Title : Espanol
Language : Spanish
Default : No
Forced : No

Text #3
ID : 5
Format : ASS
Codec ID : S_TEXT/ASS
Codec ID/Info : Advanced Sub Station Alpha
Duration : 22 min 6 s
Bit rate : 151 b/s
Count of elements : 355
Compression mode : Lossless
Stream size : 24.6 KiB (0%)
Title : Portugues(Brasil)
Language : Portuguese
Default : No
Forced : No

Text #4
ID : 6
Format : ASS
Codec ID : S_TEXT/ASS
Codec ID/Info : Advanced Sub Station Alpha
Duration : 22 min 8 s
Bit rate : 147 b/s
Count of elements : 343
Compression mode : Lossless
Stream size : 24.0 KiB (0%)
Title : Turkce
Language : Turkish
Default : No
Forced : No


Screenshots

Suisei no Gargantia (2013)

Suisei no Gargantia (2013)

Suisei no Gargantia (2013)


My publications | Rss Channel