TV Yarou Nanana (2018-2019)

Posted By: Lebedev30
TV Yarou Nanana (2018-2019)

TV Yarou Nanana (2018-2019)
WEBRip | MKV | 1920x1080 | H264@7684 Kbps | 48x ~ 3mn | 48x ~150 Mb
日本語 AAC@128 Kbps | 2 channels | Subtitles: English, Español, Português, Русский, Italiano, Deutsch, Français
Genre: comedy


Description:
This time, Satoshi Bunbara has created the characters who have the appearance of a banana.
Hmm? TV Tokyo banana employee 'Nanana'? What? What?
No, in fact it is a filming crew from a poor TV station "Televi Nanana" Satoshi Bunba inspired by Nanana.
They take the life of the producer and head for the jungle to take a scoop picture of the legendary animal "Kina".
If shooting succeeds it will be the world's first achievement! However, difficulties are found one after another in front of you.
Raging beasts … villagers trying to sacrifice God … rich rich TV stations … and the biggest enemy "low budget"!
Will it succeed in photographing Kina without fail and can win a high viewing rate! What?

Poor television station TV Nanana. Along with low poor viewership ratings, 3 people from staff go to the jungle, with no planning and talent planning to shoot the rare animal Kina.






01. Go! TV Guys Crew
02. Take Off! Low-Cost Flight to the Jungle
03. Start! Searching for the Rare Beast
04. The Arrival! Enter South America`s Jungle King
05. Village Confidential! Bananatic Paradise
06. Shivers! The Headhunters` Village
07. Mortal Combat! Man-Eating Jungle Bear
08. Blast! Dragon Suplex
09. Wanted! Cheap Assistant Director
10. School Time! Nanana Monkey Army
11. Missing! Top Class Rookie
12. Undercover! Scary Dudes Bar
13. Sing! Sing! Sing! El Keena Pasa
14. Cheap! South American Transport
15. Wheels on Fire! Charging Up on the Way
16. Stampede! The Keena Master`s Palace
17. Showdown! Banana Champion
18. The Awakening! Talented Director
19. Lucky! Price Assessment
20. Encounter! Legendary Giant Holy Beasts
21. Emergency! Draining the Lake
22. Shooting! Rare Animal Keena
23. Departure! Escape from South America
24. Arrival! Roppongi
01. Wacky TV, Bought Out!
02. Top Secret! Mission Impossible
03. Excavation! The Mountain with Legendary Gold
04. Obsession! The Actor Who Didn`t Know When to Stop
05. Cunning? Traps Set by the Bakufu
06. Salvation! Meeting Someone in Showbiz
07. A Fixed Price! On-Demand Foreign TV
08. Lonely! The Cave Gourmet
09. Onward! Nanaoka`s Expedition Crew
10. Onslaught! A Dark, Terrifying Enemy
11. Danger! The Freezing Ice Cavern
12. Out of Control! The Subterranean Railway
13. Arrival! Phantoms of The Banagawa Shogunate
14. Tragedy! Death of a TV Crew
15. Glorious! The Kunoichi Dances
16. Thrills! Stormy Clouds Over Banagawa Castle
17. Rebellion! Against the Mechanical Shogun
18. Astonishment! The AD with the Super Skill
19. Infiltration! The Giant Tower
20. Intrusion! Annoying Amateurs
21. Blaze On! Macho Dragon
22. Clash! Holy Beast VS Pro Wrestler
23. Collapse! In the Giant Cave
24. Dismissed! The TV Nanana Expedition Crew


General
Format : Matroska
Format version : Version 4 / Version 2
File size : 166 MiB
Duration : 2 min 58 s
Overall bit rate : 7 815 kb/s
Encoded date : UTC 2019-09-29 21:17:22
Writing application : mkvmerge v26.0.0 ('In The Game') 64-bit
Writing library : libebml v1.3.6 + libmatroska v1.4.9

Video
ID : 1
Format : AVC
Format/Info : Advanced Video Codec
Format profile : High@L4
Format settings : CABAC / 4 Ref Frames
Format settings, CABAC : Yes
Format settings, RefFrames : 4 frames
Codec ID : V_MPEG4/ISO/AVC
Duration : 2 min 58 s
Bit rate : 7 684 kb/s
Width : 1 920 pixels
Height : 1 080 pixels
Display aspect ratio : 16:9
Frame rate mode : Constant
Frame rate : 23.976 (24000/1001) FPS
Color space : YUV
Chroma subsampling : 4:2:0
Bit depth : 8 bits
Scan type : Progressive
Bits/(Pixel*Frame) : 0.155
Stream size : 163 MiB (98%)
Writing library : x264 core 142
Encoding settings : cabac=1 / ref=4 / deblock=1:1:1 / analyse=0x3:0x113 / me=umh / subme=8 / psy=1 / psy_rd=0.40:0.00 / mixed_ref=1 / me_range=16 / chroma_me=1 / trellis=1 / 8x8dct=1 / cqm=0 / deadzone=21,11 / fast_pskip=1 / chroma_qp_offset=-2 / threads=12 / lookahead_threads=2 / sliced_threads=0 / nr=0 / decimate=1 / interlaced=0 / bluray_compat=0 / constrained_intra=0 / bframes=3 / b_pyramid=2 / b_adapt=2 / b_bias=0 / direct=3 / weightb=1 / open_gop=0 / weightp=2 / keyint=9999999 / keyint_min=5000000 / scenecut=0 / intra_refresh=0 / rc_lookahead=50 / rc=crf / mbtree=1 / crf=15.0 / qcomp=0.60 / qpmin=0 / qpmax=69 / qpstep=4 / vbv_maxrate=8000 / vbv_bufsize=12000 / crf_max=0.0 / nal_hrd=none / filler=0 / ip_ratio=1.40 / aq=1:0.60
Default : Yes
Forced : No

Audio
ID : 2
Format : AAC
Format/Info : Advanced Audio Codec
Format profile : LC
Codec ID : A_AAC-2
Duration : 2 min 58 s
Bit rate : 128 kb/s
Channel(s) : 2 channels
Channel positions : Front: L R
Sampling rate : 44.1 kHz
Frame rate : 43.066 FPS (1024 SPF)
Compression mode : Lossy
Delay relative to video : -83 ms
Stream size : 2.72 MiB (2%)
Default : Yes
Forced : No

Text #1
ID : 3
Format : ASS
Codec ID : S_TEXT/ASS
Codec ID/Info : Advanced Sub Station Alpha
Duration : 2 min 48 s
Bit rate : 165 b/s
Count of elements : 61
Compression mode : Lossless
Stream size : 3.41 KiB (0%)
Title : English_US
Language : English
Default : Yes
Forced : No

Text #2
ID : 4
Format : ASS
Codec ID : S_TEXT/ASS
Codec ID/Info : Advanced Sub Station Alpha
Duration : 2 min 48 s
Bit rate : 207 b/s
Count of elements : 63
Compression mode : Lossless
Stream size : 4.27 KiB (0%)
Title : Deutsch
Language : German
Default : No
Forced : No

Text #3
ID : 5
Format : ASS
Codec ID : S_TEXT/ASS
Codec ID/Info : Advanced Sub Station Alpha
Duration : 2 min 48 s
Bit rate : 183 b/s
Count of elements : 60
Compression mode : Lossless
Stream size : 3.77 KiB (0%)
Title : Espanol_Espana
Language : Spanish
Default : No
Forced : No

Text #4
ID : 6
Format : ASS
Codec ID : S_TEXT/ASS
Codec ID/Info : Advanced Sub Station Alpha
Duration : 2 min 48 s
Bit rate : 181 b/s
Count of elements : 60
Compression mode : Lossless
Stream size : 3.73 KiB (0%)
Title : Espanol
Language : Spanish
Default : No
Forced : No

Text #5
ID : 7
Format : ASS
Codec ID : S_TEXT/ASS
Codec ID/Info : Advanced Sub Station Alpha
Duration : 2 min 48 s
Bit rate : 221 b/s
Count of elements : 65
Compression mode : Lossless
Stream size : 4.55 KiB (0%)
Title : Francais_France
Language : French
Default : No
Forced : No

Text #6
ID : 8
Format : ASS
Codec ID : S_TEXT/ASS
Codec ID/Info : Advanced Sub Station Alpha
Duration : 2 min 50 s
Bit rate : 206 b/s
Count of elements : 61
Compression mode : Lossless
Stream size : 4.28 KiB (0%)
Title : Italiano
Language : Italian
Default : No
Forced : No

Text #7
ID : 9
Format : ASS
Codec ID : S_TEXT/ASS
Codec ID/Info : Advanced Sub Station Alpha
Duration : 2 min 48 s
Bit rate : 173 b/s
Count of elements : 60
Compression mode : Lossless
Stream size : 3.57 KiB (0%)
Title : Portugues_Brasil
Language : Portuguese
Default : No
Forced : No

Text #8
ID : 10
Format : ASS
Codec ID : S_TEXT/ASS
Codec ID/Info : Advanced Sub Station Alpha
Duration : 2 min 48 s
Bit rate : 240 b/s
Count of elements : 60
Compression mode : Lossless
Stream size : 4.95 KiB (0%)
Title : Russian
Language : Russian
Default : No
Forced : No


Screenshots

TV Yarou Nanana (2018-2019)

TV Yarou Nanana (2018-2019)

TV Yarou Nanana (2018-2019)


My publications | Rss Channel