Tachibana-kan to Lie Angle (2018)

Posted By: Lebedev30
Tachibana-kan to Lie Angle (2018)

Tachibana-kan to Lie Angle (2018)
WEBRip | MKV | 1920x1080 | H264@4053 Kbps | 12x ~ 4mn | 12x ~100 Mb
日本語 AAC@128 Kbps | 2 channels | Subtitles: English, Español, Português, Italiano, Deutsch, Français
Genre: daily life, large breasts, romance, short episodes, shoujo ai


Description:
* Based on a comedy yuri manga by Merryhachi.

After moving back to her hometown, Natsuno Hanabi is ready to start high school and excited to be living in Tachibana Mansion, a luxurious mansion-style dormitory. However, due to some complications, she winds up at run-down but lively Tachibana House… and finds herself stuck between her childhood friend and a mysterious beauty. Will this love triangle define her high school experience?






01. New Life!
02. Secret Place
03. Spying and Sleeping Together
04. Trials and Toilets
05. Summer Clothes and Closets
06. Welcome Party and Water Gun
07. Meteor Shower and a Bucket
08. Fish and a Kiss
09. A Cold and Memories
10. Hot Springs and Ping Pong
11. Summer Festival
12. Here, at Tachibanakan


General
Format : Matroska
Format version : Version 4 / Version 2
File size : 105 MiB
Duration : 3 min 30 s
Overall bit rate : 4 185 kb/s
Encoded date : UTC 2018-10-29 20:35:14
Writing application : mkvmerge v26.0.0 ('In The Game') 64-bit
Writing library : libebml v1.3.6 + libmatroska v1.4.9

Video
ID : 1
Format : AVC
Format/Info : Advanced Video Codec
Format profile : High@L4
Format settings : CABAC / 4 Ref Frames
Format settings, CABAC : Yes
Format settings, RefFrames : 4 frames
Codec ID : V_MPEG4/ISO/AVC
Duration : 3 min 30 s
Bit rate : 4 053 kb/s
Width : 1 920 pixels
Height : 1 080 pixels
Display aspect ratio : 16:9
Frame rate mode : Constant
Frame rate : 23.976 (24000/1001) FPS
Color space : YUV
Chroma subsampling : 4:2:0
Bit depth : 8 bits
Scan type : Progressive
Bits/(Pixel*Frame) : 0.082
Stream size : 102 MiB (97%)
Writing library : x264 core 142
Encoding settings : cabac=1 / ref=4 / deblock=1:1:1 / analyse=0x3:0x113 / me=umh / subme=8 / psy=1 / psy_rd=0.40:0.00 / mixed_ref=1 / me_range=16 / chroma_me=1 / trellis=1 / 8x8dct=1 / cqm=0 / deadzone=21,11 / fast_pskip=1 / chroma_qp_offset=-2 / threads=12 / lookahead_threads=2 / sliced_threads=0 / nr=0 / decimate=1 / interlaced=0 / bluray_compat=0 / constrained_intra=0 / bframes=3 / b_pyramid=2 / b_adapt=2 / b_bias=0 / direct=3 / weightb=1 / open_gop=0 / weightp=2 / keyint=48 / keyint_min=24 / scenecut=40 / intra_refresh=0 / rc_lookahead=48 / rc=crf / mbtree=1 / crf=15.0 / qcomp=0.60 / qpmin=0 / qpmax=69 / qpstep=4 / vbv_maxrate=8000 / vbv_bufsize=12000 / crf_max=0.0 / nal_hrd=none / filler=0 / ip_ratio=1.40 / aq=1:0.60
Default : Yes
Forced : No

Audio
ID : 2
Format : AAC
Format/Info : Advanced Audio Codec
Format profile : LC
Codec ID : A_AAC-2
Duration : 3 min 30 s
Bit rate : 128 kb/s
Channel(s) : 2 channels
Channel positions : Front: L R
Sampling rate : 44.1 kHz
Frame rate : 43.066 FPS (1024 SPF)
Compression mode : Lossy
Delay relative to video : -83 ms
Stream size : 3.21 MiB (3%)
Default : Yes
Forced : No

Text #1
ID : 3
Format : ASS
Codec ID : S_TEXT/ASS
Codec ID/Info : Advanced Sub Station Alpha
Duration : 3 min 28 s
Bit rate : 193 b/s
Count of elements : 81
Compression mode : Lossless
Stream size : 4.92 KiB (0%)
Title : English(US)
Language : English
Default : Yes
Forced : No

Text #2
ID : 4
Format : ASS
Codec ID : S_TEXT/ASS
Codec ID/Info : Advanced Sub Station Alpha
Duration : 3 min 28 s
Bit rate : 203 b/s
Count of elements : 81
Compression mode : Lossless
Stream size : 5.18 KiB (0%)
Title : Deutsch
Language : German
Default : No
Forced : No

Text #3
ID : 5
Format : ASS
Codec ID : S_TEXT/ASS
Codec ID/Info : Advanced Sub Station Alpha
Duration : 3 min 28 s
Bit rate : 186 b/s
Count of elements : 75
Compression mode : Lossless
Stream size : 4.75 KiB (0%)
Title : Espanol(Espana)
Language : Spanish
Default : No
Forced : No

Text #4
ID : 6
Format : ASS
Codec ID : S_TEXT/ASS
Codec ID/Info : Advanced Sub Station Alpha
Duration : 3 min 28 s
Bit rate : 186 b/s
Count of elements : 75
Compression mode : Lossless
Stream size : 4.76 KiB (0%)
Title : Espanol
Language : Spanish
Default : No
Forced : No

Text #5
ID : 7
Format : ASS
Codec ID : S_TEXT/ASS
Codec ID/Info : Advanced Sub Station Alpha
Duration : 3 min 27 s
Bit rate : 153 b/s
Count of elements : 61
Compression mode : Lossless
Stream size : 3.87 KiB (0%)
Title : Francais(France)
Language : French
Default : No
Forced : No

Text #6
ID : 8
Format : ASS
Codec ID : S_TEXT/ASS
Codec ID/Info : Advanced Sub Station Alpha
Duration : 3 min 28 s
Bit rate : 206 b/s
Count of elements : 79
Compression mode : Lossless
Stream size : 5.25 KiB (0%)
Title : Italiano
Language : Italian
Default : No
Forced : No

Text #7
ID : 9
Format : ASS
Codec ID : S_TEXT/ASS
Codec ID/Info : Advanced Sub Station Alpha
Duration : 3 min 27 s
Bit rate : 195 b/s
Count of elements : 77
Compression mode : Lossless
Stream size : 4.97 KiB (0%)
Title : Portugues(Brasil)
Language : Portuguese
Default : No
Forced : No


Screenshots

Tachibana-kan to Lie Angle (2018)

Tachibana-kan to Lie Angle (2018)

Tachibana-kan to Lie Angle (2018)


My publications | Rss Channel