Tate no Yuusha no Nariagari (2018-2019)

Posted By: Lebedev30
Tate no Yuusha no Nariagari (2018-2019)

Tate no Yuusha no Nariagari (2018-2019)
WEBRip | MKV | 1920x1080 | H264@4832 Kbps | 25x ~ 25mn | 25x ~840 Mb
日本語 AAC@128 Kbps | 2 channels | Subtitles: العربية, English, Español, Português, Русский, Italiano, Deutsch, Français
Genre: action, adventure, dark fantasy, fantasy, parallel world, seinen


Description:
Iwatani Naofumi is an uncharismatic otaku who spends his days on games and manga, suddenly finds himself summoned to a parallel universe! He discovers he is one of four heroes equipped with legendary weapons and tasked with saving the world from its prophesied destruction. As the Shield Hero, the weakest of the heroes, all is not as it seems. Naofumi is soon alone, penniless, and betrayed. With no one to turn to, and nowhere to run, he is left with only his shield. Now, Naofumi must rise to become the legendary Shield Hero and save the world!






01. The Shield Hero
02. The Slave Girl
03. Wave of Catastrophe
04. Lullaby at Dawn
05. Filo
06. A New Comrade
07. The Savior of the Heavenly Fowl
08. Curse Shield
09. Melty
10. In the Midst of Turmoil
11. Catastrophe Returns
12. The Raven Invader
13. The Devil of the Shield
14. Everlasting Memory
15. Raphtalia
16. Filolial Queen
17. A Promise Made
18. A Conspiracy Linked
19. The Four Cardinal Heroes
20. Battle of Good and Evil
21. Naofumi`s Triumphant Return
22. Four Heroes Council
23. Cal Mira Archipelago
24. Guardians of Another World
25. The Rising of the Shield Hero


General
Format : Matroska
Format version : Version 4 / Version 2
File size : 840 MiB
Duration : 23 min 41 s
Overall bit rate : 4 957 kb/s
Encoded date : UTC 2019-01-16 15:33:49
Writing application : mkvmerge v26.0.0 ('In The Game') 64-bit
Writing library : libebml v1.3.6 + libmatroska v1.4.9

Video
ID : 1
Format : AVC
Format/Info : Advanced Video Codec
Format profile : High@L4
Format settings : CABAC / 4 Ref Frames
Format settings, CABAC : Yes
Format settings, RefFrames : 4 frames
Codec ID : V_MPEG4/ISO/AVC
Duration : 23 min 39 s
Bit rate : 4 832 kb/s
Width : 1 920 pixels
Height : 1 080 pixels
Display aspect ratio : 16:9
Frame rate mode : Constant
Frame rate : 23.976 (24000/1001) FPS
Color space : YUV
Chroma subsampling : 4:2:0
Bit depth : 8 bits
Scan type : Progressive
Bits/(Pixel*Frame) : 0.097
Stream size : 818 MiB (97%)
Writing library : x264 core 142
Encoding settings : cabac=1 / ref=4 / deblock=1:1:1 / analyse=0x3:0x113 / me=umh / subme=8 / psy=1 / psy_rd=0.40:0.00 / mixed_ref=1 / me_range=16 / chroma_me=1 / trellis=1 / 8x8dct=1 / cqm=0 / deadzone=21,11 / fast_pskip=1 / chroma_qp_offset=-2 / threads=12 / lookahead_threads=2 / sliced_threads=0 / nr=0 / decimate=1 / interlaced=0 / bluray_compat=0 / constrained_intra=0 / bframes=3 / b_pyramid=2 / b_adapt=2 / b_bias=0 / direct=3 / weightb=1 / open_gop=0 / weightp=2 / keyint=48 / keyint_min=25 / scenecut=0 / intra_refresh=0 / rc_lookahead=48 / rc=crf / mbtree=1 / crf=15.0 / qcomp=0.60 / qpmin=0 / qpmax=69 / qpstep=4 / vbv_maxrate=8000 / vbv_bufsize=12000 / crf_max=0.0 / nal_hrd=none / filler=0 / ip_ratio=1.40 / aq=1:0.60
Default : Yes
Forced : No

Audio
ID : 2
Format : AAC
Format/Info : Advanced Audio Codec
Format profile : LC
Codec ID : A_AAC-2
Duration : 23 min 40 s
Bit rate : 128 kb/s
Channel(s) : 2 channels
Channel positions : Front: L R
Sampling rate : 44.1 kHz
Frame rate : 43.066 FPS (1024 SPF)
Compression mode : Lossy
Delay relative to video : -83 ms
Stream size : 21.7 MiB (3%)
Default : Yes
Forced : No

Text #1
ID : 3
Format : ASS
Codec ID : S_TEXT/ASS
Codec ID/Info : Advanced Sub Station Alpha
Duration : 23 min 24 s
Bit rate : 116 b/s
Count of elements : 343
Compression mode : Lossless
Stream size : 20.0 KiB (0%)
Title : English(US)
Language : English
Default : Yes
Forced : No

Text #2
ID : 4
Format : ASS
Codec ID : S_TEXT/ASS
Codec ID/Info : Advanced Sub Station Alpha
Duration : 23 min 24 s
Bit rate : 143 b/s
Count of elements : 343
Compression mode : Lossless
Stream size : 24.6 KiB (0%)
Title : Arabic
Language : Arabic
Default : No
Forced : No

Text #3
ID : 5
Format : ASS
Codec ID : S_TEXT/ASS
Codec ID/Info : Advanced Sub Station Alpha
Duration : 23 min 24 s
Bit rate : 113 b/s
Count of elements : 296
Compression mode : Lossless
Stream size : 19.5 KiB (0%)
Title : Francais(France)
Language : French
Default : No
Forced : No

Text #4
ID : 6
Format : ASS
Codec ID : S_TEXT/ASS
Codec ID/Info : Advanced Sub Station Alpha
Duration : 23 min 24 s
Bit rate : 121 b/s
Count of elements : 327
Compression mode : Lossless
Stream size : 20.9 KiB (0%)
Title : Deutsch
Language : German
Default : No
Forced : No

Text #5
ID : 7
Format : ASS
Codec ID : S_TEXT/ASS
Codec ID/Info : Advanced Sub Station Alpha
Duration : 23 min 24 s
Bit rate : 124 b/s
Count of elements : 354
Compression mode : Lossless
Stream size : 21.4 KiB (0%)
Title : Italiano
Language : Italian
Default : No
Forced : No

Text #6
ID : 8
Format : ASS
Codec ID : S_TEXT/ASS
Codec ID/Info : Advanced Sub Station Alpha
Duration : 23 min 26 s
Bit rate : 94 b/s
Count of elements : 297
Compression mode : Lossless
Stream size : 16.2 KiB (0%)
Title : Espanol(Espana)
Language : Spanish
Default : No
Forced : No

Text #7
ID : 9
Format : ASS
Codec ID : S_TEXT/ASS
Codec ID/Info : Advanced Sub Station Alpha
Duration : 23 min 26 s
Bit rate : 95 b/s
Count of elements : 303
Compression mode : Lossless
Stream size : 16.4 KiB (0%)
Title : Espanol
Language : Spanish
Default : No
Forced : No

Text #8
ID : 10
Format : ASS
Codec ID : S_TEXT/ASS
Codec ID/Info : Advanced Sub Station Alpha
Duration : 23 min 24 s
Bit rate : 116 b/s
Count of elements : 344
Compression mode : Lossless
Stream size : 19.9 KiB (0%)
Title : Portugues(Brasil)
Language : Portuguese
Default : No
Forced : No

Text #9
ID : 11
Format : ASS
Codec ID : S_TEXT/ASS
Codec ID/Info : Advanced Sub Station Alpha
Duration : 23 min 24 s
Bit rate : 236 b/s
Count of elements : 392
Compression mode : Lossless
Stream size : 40.5 KiB (0%)
Title : Russian
Language : Russian
Default : No
Forced : No


Screenshots

Tate no Yuusha no Nariagari (2018-2019)

Tate no Yuusha no Nariagari (2018-2019)

Tate no Yuusha no Nariagari (2018-2019)


My publications | Rss Channel