Teekyuu (2012-2017)

Posted By: Lebedev30
Teekyuu (2012-2017)

Teekyuu (2012-2017)
WEBRip | MKV | 1280x720 | H264@3277 Kbps | 108x ~ 2mn | 108x ~40 Mb
日本語 AAC@128 Kbps | 2 channels | Subtitles: English, Español, Português
Genre: comedy, school clubs, short episodes, tennis


Description:
* Based on Piyo's sports comedy manga by the same name, serialised in Comic Earth Star.

Four girls make up Kameido High School's Tennis Club, but they do not actually get in much tennis practice. Oshimoto Yuri is the club's only freshman and the only sane person in this collection of eccentric personalities. Each day is spent in fun with her sophomore seniors, Shinjou Kanae, who is utterly inept at tennis, Takamiya Nasuno, who attempts to solve every problem with money, and Bandou Marimo, who, despite her elegant looks, is quite the pervert.














01. Once in a Lifetime with Senpai
02. Caribbean with Senpai
03. Gold Rush with Senpai
04. Goonies with Senpai
05. Dengeki with Senpai
06. Waterworld with Senpai
07. From Russia with Love with Senpai
08. Born on the Fourth of July with Senpai
09. Dinner Rush with Senpai
10. Up the Creek with Senpai
11. Nacho Libre with Senpai
12. The Sixth Sense with Senpai
01. Full Metal Jacket with Senpai
02. We Were Soldiers with Senpai
03. Transformers with Senpai
04. Ping Pong with Senpai
05. Mars Attacks with Senpai
06. Evolution with Senpai
07. Run Lola Run with Senpai
08. Cider House Rules with Senpai
09. Major League with Senpai
10. Field of Dreams with Senpai
11. E.T. with Senpai
12. Ratatouille with Senpai
13. The World Is Not Enough with Senpai
14. Stand By Me with Senpai
15. Mad Max with Senpai
16. Edward Scissorhands with Senpai
17. The Hangover with Senpai!
18. 8 Mile with Senpai
19. The Merchant of Venice with Senpai
20. Rashomon with Senpai
21. Constantine with Senpai
22. Dreamcatcher with Senpai
23. Tomorrow Never Dies with Senpai
24. Coach Carter with Senpai
01. Men in Black with Senpai
02. Romeo Must Die with Senpai
03. Trainspotting with Senpai
04. Rambo with Senpai
05. Jaws with Senpai
06. Cast Away with Senpai
07. Enemy at the Gates with Senpai
08. The Mummy with Senpai
09. Goal! with Senpai
10. Shaun of the Dead with Senpai
11. A Bug`s Life with Senpai
12. Apocalypto with Senpai
13. The Terminal with Senpai
14. The Killing Fields with Senpai
15. Beautiful Dreamer with Senpai
16. The Cat Returns with Senpai
17. Die Hard 3 with Senpai
18. Alien vs. Predator with Senpai
19. Reservoir Dogs with Senpai
20. Mission: Impossible with Senpai
21. Senpai and the Philosopher`s Stone
22. The Day After Tomorrow with Senpai
23. The Social Network with Senpai
24. John Q with Senpai
25. Backdraft with Senpai
26. GoldenEye with Senpai
27. Love and Honor with Senpai
28. Premium Rush with Senpai
29. Tremors with Senpai
30. Bowling for Columbine with Senpai
31. The Dark Knight with Senpai
32. Enchanted with Senpai
33. Meet the Parents with Senpai
34. Wimbledon with Senpai
35. Planet of the Apes with Senpai
36. 2001: A Space Odyssey with Senpai
37. Ju-On with Senpai
38. Ironclad with Senpai
39. Brokeback Mountain with Senpai
40. Miss Congeniality with Senpai
41. Ted with Senpai
42. Fury with Senpai
43. The Grand Budapest Hotel with Senpai
44. Nurse Betty with Senpai
45. The Exorcist with Senpai
46. The Kirishima Thing with Senpai
47. The Straight Story with Senpai
48. Saving Private Ryan with Senpai
01. Lord of the Flies with Senpai
02. Se7en with Senpai
03. 28 Days Later with Senpai
04. Titanic with Senpai
05. The Super-Scary Super-Strange Files! Scariest Movie Ever with Senpai
06. Night at the Museum with Senpai
07. Oblivion with Senpai
08. Face/Off with Senpai
09. Once Upon a Time in America with Senpai
10. Once Upon a Time in China with Senpai
11. Enemy of the State with Senpai
12. Saturday Night Fever with Senpai
01. Species with Senpai
02. Home Alone with Senpai
03. Pitch Perfect with Senpai
04. 300 with Senpai
05. 101 Dalmatians with Senpai
06. Nasu: Summer in Andalusia with Senpai
07. Sadako vs Kayako with Senpai
08. Chef with Senpai
09. Deadpool with Senpai
10. Battles Without Honor and Humanity with Senpai
11. Dr. Dolittle with Senpai
12. The Sound of Music with Senpai


General
Format : Matroska
Format version : Version 4 / Version 2
File size : 48.8 MiB
Duration : 3 min 0 s
Overall bit rate : 2 275 kb/s
Encoded date : UTC 2018-10-29 21:48:54
Writing application : mkvmerge v26.0.0 ('In The Game') 64-bit
Writing library : libebml v1.3.6 + libmatroska v1.4.9

Video
ID : 1
Format : AVC
Format/Info : Advanced Video Codec
Format profile : High@L4
Format settings : CABAC / 6 Ref Frames
Format settings, CABAC : Yes
Format settings, RefFrames : 6 frames
Codec ID : V_MPEG4/ISO/AVC
Duration : 2 min 0 s
Bit rate : 3 277 kb/s
Width : 1 280 pixels
Height : 720 pixels
Display aspect ratio : 16:9
Frame rate mode : Constant
Frame rate : 29.970 (30000/1001) FPS
Color space : YUV
Chroma subsampling : 4:2:0
Bit depth : 8 bits
Scan type : Progressive
Bits/(Pixel*Frame) : 0.119
Stream size : 46.9 MiB (96%)
Writing library : x264 core 142
Encoding settings : cabac=1 / ref=6 / deblock=1:1:1 / analyse=0x3:0x113 / me=umh / subme=8 / psy=1 / psy_rd=0.40:0.00 / mixed_ref=1 / me_range=16 / chroma_me=1 / trellis=1 / 8x8dct=1 / cqm=0 / deadzone=21,11 / fast_pskip=1 / chroma_qp_offset=-2 / threads=10 / lookahead_threads=1 / sliced_threads=0 / nr=0 / decimate=1 / interlaced=0 / bluray_compat=0 / constrained_intra=0 / bframes=3 / b_pyramid=2 / b_adapt=2 / b_bias=0 / direct=3 / weightb=1 / open_gop=0 / weightp=2 / keyint=60 / keyint_min=30 / scenecut=40 / intra_refresh=0 / rc_lookahead=50 / rc=crf / mbtree=1 / crf=15.0 / qcomp=0.60 / qpmin=0 / qpmax=69 / qpstep=4 / vbv_maxrate=4000 / vbv_bufsize=6000 / crf_max=0.0 / nal_hrd=none / filler=0 / ip_ratio=1.40 / aq=1:0.60
Default : Yes
Forced : No

Audio
ID : 2
Format : AAC
Format/Info : Advanced Audio Codec
Format profile : LC
Codec ID : A_AAC-2
Duration : 2 min 0 s
Bit rate : 128 kb/s
Channel(s) : 2 channels
Channel positions : Front: L R
Sampling rate : 44.1 kHz
Frame rate : 43.066 FPS (1024 SPF)
Compression mode : Lossy
Delay relative to video : -66 ms
Stream size : 1.83 MiB (4%)
Default : Yes
Forced : No

Text #1
ID : 3
Format : ASS
Codec ID : S_TEXT/ASS
Codec ID/Info : Advanced Sub Station Alpha
Duration : 2 min 59 s
Bit rate : 214 b/s
Count of elements : 72
Compression mode : Lossless
Stream size : 4.69 KiB (0%)
Title : English(US)
Language : English
Default : Yes
Forced : No

Text #2
ID : 4
Format : ASS
Codec ID : S_TEXT/ASS
Codec ID/Info : Advanced Sub Station Alpha
Duration : 1 min 59 s
Bit rate : 292 b/s
Count of elements : 70
Compression mode : Lossless
Stream size : 4.28 KiB (0%)
Title : Espanol
Language : Spanish
Default : No
Forced : No

Text #3
ID : 5
Format : ASS
Codec ID : S_TEXT/ASS
Codec ID/Info : Advanced Sub Station Alpha
Duration : 2 min 59 s
Bit rate : 206 b/s
Count of elements : 71
Compression mode : Lossless
Stream size : 4.51 KiB (0%)
Title : Portugues(Brasil)
Language : Portuguese
Default : No
Forced : No


Screenshots

Teekyuu (2012-2017)

Teekyuu (2012-2017)

Teekyuu (2012-2017)


My publications | Rss Channel