Tejina Senpai (2019)

Posted By: Lebedev30
Tejina Senpai (2019)

Tejina Senpai (2019)
WEBRip | MKV | 1920x1080 | H264@3983 Kbps | 12x ~ 13mn | 12x ~350 Mb
日本語 AAC@128 Kbps | 2 channels | Subtitles: العربية, English, Español, Português, Русский, Italiano, Deutsch, Français
Genre: comedy, ecchi, half-length episodes, large breasts, school clubs, school life


Description:
* Based on a comedy seinen manga series drawn by Azu.

The male protagonist finds out that his school requires him to join a club and during his reluctant search he stumbles upon Tejina Senpai attempting magic tricks in her clubroom. Tejina Senpai has massive stage fright however and so now that she has an audience her attempts are simply comedic.






01. The Unknown Sempai / Sempai in a Box / Sempai Calls / Sempai and the Pigeon
02. Sempai Bends / Impenetrable Sempai / Sempai Shifts Responsibility / The Lady Who Stinks at Magic / Sempai Gets Serious
03. Sempai`s Discomfort / Pop Quiz Sempai / Conquering Sempai / Kimono Sempai / Sempai Off Campus
04. Celebrating Sempai / Scouting Sempai / Pigeon, Pigeon, and Sempai / Sempai Finishes the Job / Magic Club Sempai
05. Observers and Sempai / Onion Sempai / Chemistry Sempai / Unexpected Sempai / Inviting Sempai
06. A Sempai I Don`t Know / Gyaru-Pan Sempai / Measuring Sempai / Suspicious Sempai
07. Creative Sempai / Fund-Raising Sempai / Pool Sempai / Overcoming Sempai
08. Chinese Sempai / Mentalist Sempai / Mikan Sempai / Internet Sempai / Delivery Sempai
09. Biased Sempai / Make-Up Exam Sempai / Ice Cream Sempai / Swimsuit Sempai
10. Beach Sempai / Crab Sempai / Watermelon Sempai / Fireworks Sempai
11. Four Balls Sempai / Ventriloquism Sempai / Tailing Sempai
12. Growing Sempai / Unfailing Sempai / Competitive Sempai / Silent Sempai / Bunny Sempai


General
Format : Matroska
Format version : Version 4 / Version 2
File size : 368 MiB
Duration : 12 min 30 s
Overall bit rate : 4 114 kb/s
Encoded date : UTC 2019-07-06 05:31:22
Writing application : mkvmerge v26.0.0 ('In The Game') 64-bit
Writing library : libebml v1.3.6 + libmatroska v1.4.9

Video
ID : 1
Format : AVC
Format/Info : Advanced Video Codec
Format profile : High@L4
Format settings : CABAC / 4 Ref Frames
Format settings, CABAC : Yes
Format settings, RefFrames : 4 frames
Codec ID : V_MPEG4/ISO/AVC
Duration : 12 min 30 s
Bit rate : 3 983 kb/s
Width : 1 920 pixels
Height : 1 080 pixels
Display aspect ratio : 16:9
Frame rate mode : Constant
Frame rate : 23.976 (24000/1001) FPS
Color space : YUV
Chroma subsampling : 4:2:0
Bit depth : 8 bits
Scan type : Progressive
Bits/(Pixel*Frame) : 0.080
Stream size : 356 MiB (97%)
Writing library : x264 core 142
Encoding settings : cabac=1 / ref=4 / deblock=1:1:1 / analyse=0x3:0x113 / me=umh / subme=8 / psy=1 / psy_rd=0.40:0.00 / mixed_ref=1 / me_range=16 / chroma_me=1 / trellis=1 / 8x8dct=1 / cqm=0 / deadzone=21,11 / fast_pskip=1 / chroma_qp_offset=-2 / threads=12 / lookahead_threads=2 / sliced_threads=0 / nr=0 / decimate=1 / interlaced=0 / bluray_compat=0 / constrained_intra=0 / bframes=3 / b_pyramid=2 / b_adapt=2 / b_bias=0 / direct=3 / weightb=1 / open_gop=0 / weightp=2 / keyint=96 / keyint_min=48 / scenecut=40 / intra_refresh=0 / rc_lookahead=48 / rc=crf / mbtree=1 / crf=15.0 / qcomp=0.60 / qpmin=0 / qpmax=69 / qpstep=4 / vbv_maxrate=8000 / vbv_bufsize=12000 / crf_max=0.0 / nal_hrd=none / filler=0 / ip_ratio=1.40 / aq=1:0.60
Default : Yes
Forced : No

Audio
ID : 2
Format : AAC
Format/Info : Advanced Audio Codec
Format profile : LC
Codec ID : A_AAC-2
Duration : 12 min 30 s
Bit rate : 128 kb/s
Channel(s) : 2 channels
Channel positions : Front: L R
Sampling rate : 44.1 kHz
Frame rate : 43.066 FPS (1024 SPF)
Compression mode : Lossy
Delay relative to video : -83 ms
Stream size : 11.4 MiB (3%)
Default : Yes
Forced : No

Text #1
ID : 3
Format : ASS
Codec ID : S_TEXT/ASS
Codec ID/Info : Advanced Sub Station Alpha
Duration : 12 min 30 s
Bit rate : 210 b/s
Count of elements : 307
Compression mode : Lossless
Stream size : 19.3 KiB (0%)
Title : English(US)
Language : English
Default : Yes
Forced : No

Text #2
ID : 4
Format : ASS
Codec ID : S_TEXT/ASS
Codec ID/Info : Advanced Sub Station Alpha
Duration : 12 min 30 s
Bit rate : 244 b/s
Count of elements : 307
Compression mode : Lossless
Stream size : 22.4 KiB (0%)
Title : Arabic
Language : Arabic
Default : No
Forced : No

Text #3
ID : 5
Format : ASS
Codec ID : S_TEXT/ASS
Codec ID/Info : Advanced Sub Station Alpha
Duration : 12 min 27 s
Bit rate : 196 b/s
Count of elements : 257
Compression mode : Lossless
Stream size : 17.9 KiB (0%)
Title : Francais(France)
Language : French
Default : No
Forced : No

Text #4
ID : 6
Format : ASS
Codec ID : S_TEXT/ASS
Codec ID/Info : Advanced Sub Station Alpha
Duration : 12 min 30 s
Bit rate : 223 b/s
Count of elements : 308
Compression mode : Lossless
Stream size : 20.4 KiB (0%)
Title : Deutsch
Language : German
Default : No
Forced : No

Text #5
ID : 7
Format : ASS
Codec ID : S_TEXT/ASS
Codec ID/Info : Advanced Sub Station Alpha
Duration : 12 min 30 s
Bit rate : 231 b/s
Count of elements : 303
Compression mode : Lossless
Stream size : 21.2 KiB (0%)
Title : Italiano
Language : Italian
Default : No
Forced : No

Text #6
ID : 8
Format : ASS
Codec ID : S_TEXT/ASS
Codec ID/Info : Advanced Sub Station Alpha
Duration : 12 min 28 s
Bit rate : 197 b/s
Count of elements : 286
Compression mode : Lossless
Stream size : 18.1 KiB (0%)
Title : Espanol(Espana)
Language : Spanish
Default : No
Forced : No

Text #7
ID : 9
Format : ASS
Codec ID : S_TEXT/ASS
Codec ID/Info : Advanced Sub Station Alpha
Duration : 12 min 28 s
Bit rate : 197 b/s
Count of elements : 286
Compression mode : Lossless
Stream size : 18.0 KiB (0%)
Title : Espanol
Language : Spanish
Default : No
Forced : No

Text #8
ID : 10
Format : ASS
Codec ID : S_TEXT/ASS
Codec ID/Info : Advanced Sub Station Alpha
Duration : 12 min 30 s
Bit rate : 201 b/s
Count of elements : 301
Compression mode : Lossless
Stream size : 18.5 KiB (0%)
Title : Portugues(Brasil)
Language : Portuguese
Default : No
Forced : No

Text #9
ID : 11
Format : ASS
Codec ID : S_TEXT/ASS
Codec ID/Info : Advanced Sub Station Alpha
Duration : 12 min 28 s
Bit rate : 295 b/s
Count of elements : 301
Compression mode : Lossless
Stream size : 27.0 KiB (0%)
Title : Russian
Language : Russian
Default : No
Forced : No


Screenshots

Tejina Senpai (2019)

Tejina Senpai (2019)

Tejina Senpai (2019)


My publications | Rss Channel