Sirius the Jaeger (2018)

Posted By: Lebedev30
Sirius the Jaeger (2018)

Sirius the Jaeger (2018)
WEBRip | MKV | 1920x1080 | H264@6190 Kbps | 12x ~ 25mn | 12x ~1 Gb
日本語 E-AC-3@128 Kbps | 2 channels | Subtitles: العربية, English, Español, Português, Русский, Italiano, Deutsch, Français
Genre: action, steampunk, vampire


Description:
Imperial Capital, 1930. A strange group of people carrying musical instrument cases landed on Tokyo station. They are called the "Jaegers", who came to hunt vampires. Amongst them, there stood a young man with striking serenity and unusual aura. His name is Yuliy, a werewolf whose home village was destroyed by vampires. Yuliy and the Jaegers engage in deadly battle over a mysterious holy arc only known as "The Arc of Sirius". What truth awaits them at the end…?






01. The Revenant Howls in Darkness
02. Deprived Talent
03. Indelible Memories
04. Beginning of Trickery
05. The Frankenstein
06. Mokingbird`s Song
07. True Confession
08. The Sanctuary of Sirius
09. Father`s Shadow
10. Memories of the Abyss
11. Calling in Blood
12. The Ark of Sirius


General
Format : Matroska
Format version : Version 4 / Version 2
File size : 1.08 GiB
Duration : 24 min 26 s
Overall bit rate mode : Variable
Overall bit rate : 6 304 kb/s
Encoded date : UTC 2018-12-21 13:06:07
Writing application : mkvmerge v27.0.0 ('Metropolis') 64-bit
Writing library : libebml v1.3.6 + libmatroska v1.4.9

Video
ID : 8
Format : AVC
Format/Info : Advanced Video Codec
Format profile : Main@L4
Format settings : CABAC / 3 Ref Frames
Format settings, CABAC : Yes
Format settings, RefFrames : 3 frames
Codec ID : V_MPEG4/ISO/AVC
Duration : 24 min 26 s
Bit rate mode : Variable
Bit rate : 6 190 kb/s
Maximum bit rate : 9 285 kb/s
Width : 1 920 pixels
Height : 1 080 pixels
Display aspect ratio : 16:9
Frame rate mode : Constant
Frame rate : 23.976 (24000/1001) FPS
Color space : YUV
Chroma subsampling : 4:2:0
Bit depth : 8 bits
Scan type : Progressive
Bits/(Pixel*Frame) : 0.125
Stream size : 1.05 GiB (98%)
Writing library : x264 core 148 r2715 7e75228
Encoding settings : cabac=1 / ref=3 / deblock=1:0:0 / analyse=0x1:0x111 / me=umh / subme=10 / psy=1 / psy_rd=1.00:0.00 / mixed_ref=1 / me_range=24 / chroma_me=1 / trellis=2 / 8x8dct=0 / cqm=0 / deadzone=21,11 / fast_pskip=1 / chroma_qp_offset=-2 / threads=8 / lookahead_threads=1 / sliced_threads=0 / nr=0 / decimate=1 / interlaced=0 / bluray_compat=0 / stitchable=1 / constrained_intra=0 / bframes=2 / b_pyramid=0 / b_adapt=2 / b_bias=0 / direct=3 / weightb=1 / open_gop=0 / weightp=2 / keyint=48 / keyint_min=25 / scenecut=0 / intra_refresh=0 / rc_lookahead=48 / rc=2pass / mbtree=1 / bitrate=6190 / ratetol=1.0 / qcomp=0.50 / qpmin=6 / qpmax=51 / qpstep=4 / cplxblur=20.0 / qblur=0.5 / vbv_maxrate=9285 / vbv_bufsize=12380 / nal_hrd=vbr / filler=0 / ip_ratio=1.40 / aq=1:1.00
Language : Japanese
Default : Yes
Forced : No

Audio
ID : 9
Format : E-AC-3
Format/Info : Enhanced Audio Coding 3
Codec ID : A_EAC3
Duration : 24 min 26 s
Bit rate mode : Constant
Bit rate : 128 kb/s
Channel(s) : 2 channels
Channel positions : Front: L R
Sampling rate : 48.0 kHz
Frame rate : 187.500 FPS (256 SPF)
Compression mode : Lossy
Stream size : 22.4 MiB (2%)
Language : Japanese
Service kind : Complete Main
Default : Yes
Forced : No

Text #1
ID : 1
Format : ASS
Codec ID : S_TEXT/ASS
Codec ID/Info : Advanced Sub Station Alpha
Duration : 24 min 22 s
Bit rate : 95 b/s
Count of elements : 319
Compression mode : Lossless
Stream size : 17.1 KiB (0%)
Language : English
Default : Yes
Forced : No

Text #2
ID : 2
Format : ASS
Codec ID : S_TEXT/ASS
Codec ID/Info : Advanced Sub Station Alpha
Duration : 24 min 22 s
Bit rate : 90 b/s
Count of elements : 305
Compression mode : Lossless
Stream size : 16.2 KiB (0%)
Language : Spanish
Default : No
Forced : No

Text #3
ID : 3
Format : ASS
Codec ID : S_TEXT/ASS
Codec ID/Info : Advanced Sub Station Alpha
Duration : 24 min 22 s
Bit rate : 93 b/s
Count of elements : 313
Compression mode : Lossless
Stream size : 16.6 KiB (0%)
Language : French
Default : No
Forced : No

Text #4
ID : 4
Format : ASS
Codec ID : S_TEXT/ASS
Codec ID/Info : Advanced Sub Station Alpha
Duration : 24 min 22 s
Bit rate : 90 b/s
Count of elements : 314
Compression mode : Lossless
Stream size : 16.2 KiB (0%)
Language : Italian
Default : No
Forced : No

Text #5
ID : 5
Format : ASS
Codec ID : S_TEXT/ASS
Codec ID/Info : Advanced Sub Station Alpha
Duration : 24 min 22 s
Bit rate : 93 b/s
Count of elements : 319
Compression mode : Lossless
Stream size : 16.7 KiB (0%)
Language : Portuguese
Default : No
Forced : No

Text #6
ID : 6
Format : ASS
Codec ID : S_TEXT/ASS
Codec ID/Info : Advanced Sub Station Alpha
Duration : 24 min 22 s
Bit rate : 124 b/s
Count of elements : 319
Compression mode : Lossless
Stream size : 22.2 KiB (0%)
Language : Russian
Default : No
Forced : No

Text #7
ID : 7
Format : ASS
Codec ID : S_TEXT/ASS
Codec ID/Info : Advanced Sub Station Alpha
Duration : 24 min 22 s
Bit rate : 91 b/s
Count of elements : 319
Compression mode : Lossless
Stream size : 16.3 KiB (0%)
Language : Spanish
Default : No
Forced : No

Text #8
ID : 10
Format : ASS
Codec ID : S_TEXT/ASS
Codec ID/Info : Advanced Sub Station Alpha
Duration : 24 min 22 s
Bit rate : 125 b/s
Count of elements : 319
Compression mode : Lossless
Stream size : 22.5 KiB (0%)
Language : Arabic
Default : No
Forced : No

Text #9
ID : 11
Format : ASS
Codec ID : S_TEXT/ASS
Codec ID/Info : Advanced Sub Station Alpha
Duration : 24 min 22 s
Bit rate : 93 b/s
Count of elements : 319
Compression mode : Lossless
Stream size : 16.6 KiB (0%)
Language : Portuguese
Default : No
Forced : No

Text #10
ID : 12
Format : ASS
Codec ID : S_TEXT/ASS
Codec ID/Info : Advanced Sub Station Alpha
Duration : 24 min 22 s
Bit rate : 91 b/s
Count of elements : 319
Compression mode : Lossless
Stream size : 16.2 KiB (0%)
Language : German
Default : No
Forced : No


Screenshots

Sirius the Jaeger (2018)

Sirius the Jaeger (2018)

Sirius the Jaeger (2018)


My publications | Rss Channel