Tenshi no 3P! (2017)

Posted By: Lebedev30
Tenshi no 3P! (2017)

Tenshi no 3P! (2017)
WEBRip | MKV | 1920x1080 | H264@5208 Kbps | 12x ~ 25mn | 12x ~900 Mb
日本語 AAC@128 Kbps | 2 channels | Subtitles: العربية, English, Español, Português, Italiano, Deutsch, Français
Genre: loli, music, musical band, shounen, the arts


Description:
* Based on the light novel series by the same name written by Aoyama Sagu and illustrated by Tinkle.

Nukui Kyou is a high school student who tends to skip school due to a trauma in his past. Kyou secretly creates songs using vocal song synthesis software as his hobby. Three girls who just entered fifth grade - the crybaby Gotou Jun, the strong-willed Momijidani Nozomi, and the somewhat sleepy Kaneshiro Sora who takes life at her own pace - email Kyou. These three girls, who were raised together like sisters since childhood, want Kyou to help them break into music in this loli & pop symphony story.






01. Heart Throbbing for Elementary School Kids!
02. Want to Do It Together
03. The Boy on Hiatus Descends and Flees, and the Girls from the Church
04. The World Is but Rock n` Roll
05. It`s So Fun Taking Pictures of You, Because You Don`t Realize How Cute You Are.
06. Don`t Take the Bassist!
07. Surprise Invitation
08. Pretty Girl in the Mural
09. The Grade School Kids Might`ve Not Been Able to Save the Drowning God If They Hadn`t Gotten There in Time
10. Totally a Date
11. Band Battles and Melodies
12. Can`t Help but Love the Music


General
Format : Matroska
Format version : Version 4 / Version 2
File size : 904 MiB
Duration : 23 min 41 s
Overall bit rate : 5 335 kb/s
Encoded date : UTC 2017-07-10 14:38:33
Writing application : mkvmerge v12.0.0 ('Trust / Lust') 64bit
Writing library : libebml v1.3.4 + libmatroska v1.4.5

Video
ID : 1
Format : AVC
Format/Info : Advanced Video Codec
Format profile : High@L4
Format settings : CABAC / 4 Ref Frames
Format settings, CABAC : Yes
Format settings, RefFrames : 4 frames
Codec ID : V_MPEG4/ISO/AVC
Duration : 23 min 40 s
Bit rate : 5 208 kb/s
Width : 1 920 pixels
Height : 1 080 pixels
Display aspect ratio : 16:9
Frame rate mode : Constant
Frame rate : 23.976 (24000/1001) FPS
Color space : YUV
Chroma subsampling : 4:2:0
Bit depth : 8 bits
Scan type : Progressive
Bits/(Pixel*Frame) : 0.105
Stream size : 882 MiB (98%)
Writing library : x264 core 142
Encoding settings : cabac=1 / ref=4 / deblock=1:1:1 / analyse=0x3:0x113 / me=umh / subme=8 / psy=1 / psy_rd=0.40:0.00 / mixed_ref=1 / me_range=16 / chroma_me=1 / trellis=1 / 8x8dct=1 / cqm=0 / deadzone=21,11 / fast_pskip=1 / chroma_qp_offset=-2 / threads=12 / lookahead_threads=2 / sliced_threads=0 / nr=0 / decimate=1 / interlaced=0 / bluray_compat=0 / constrained_intra=0 / bframes=3 / b_pyramid=2 / b_adapt=2 / b_bias=0 / direct=3 / weightb=1 / open_gop=0 / weightp=2 / keyint=48 / keyint_min=24 / scenecut=40 / intra_refresh=0 / rc_lookahead=48 / rc=crf / mbtree=1 / crf=15.0 / qcomp=0.60 / qpmin=0 / qpmax=69 / qpstep=4 / vbv_maxrate=8000 / vbv_bufsize=12000 / crf_max=0.0 / nal_hrd=none / filler=0 / ip_ratio=1.40 / aq=1:0.60
Language : Japanese
Default : Yes
Forced : No

Audio
ID : 2
Format : AAC
Format/Info : Advanced Audio Codec
Format profile : LC
Codec ID : A_AAC-2
Duration : 23 min 40 s
Bit rate : 128 kb/s
Channel(s) : 2 channels
Channel positions : Front: L R
Sampling rate : 44.1 kHz
Frame rate : 43.066 FPS (1024 SPF)
Compression mode : Lossy
Delay relative to video : -83 ms
Stream size : 21.7 MiB (2%)
Language : Japanese
Default : Yes
Forced : No

Text #1
ID : 3
Format : ASS
Codec ID : S_TEXT/ASS
Codec ID/Info : Advanced Sub Station Alpha
Duration : 23 min 6 s
Bit rate : 121 b/s
Count of elements : 305
Compression mode : Lossless
Stream size : 20.6 KiB (0%)
Language : German
Default : No
Forced : No

Text #2
ID : 4
Format : ASS
Codec ID : S_TEXT/ASS
Codec ID/Info : Advanced Sub Station Alpha
Duration : 23 min 6 s
Bit rate : 109 b/s
Count of elements : 302
Compression mode : Lossless
Stream size : 18.5 KiB (0%)
Language : English
Default : Yes
Forced : No

Text #3
ID : 5
Format : ASS
Codec ID : S_TEXT/ASS
Codec ID/Info : Advanced Sub Station Alpha
Duration : 23 min 6 s
Bit rate : 97 b/s
Count of elements : 284
Compression mode : Lossless
Stream size : 16.6 KiB (0%)
Language : Spanish
Default : No
Forced : No

Text #4
ID : 6
Format : ASS
Codec ID : S_TEXT/ASS
Codec ID/Info : Advanced Sub Station Alpha
Duration : 23 min 6 s
Bit rate : 100 b/s
Count of elements : 284
Compression mode : Lossless
Stream size : 17.0 KiB (0%)
Language : Spanish
Default : No
Forced : No

Text #5
ID : 7
Format : ASS
Codec ID : S_TEXT/ASS
Codec ID/Info : Advanced Sub Station Alpha
Duration : 23 min 5 s
Bit rate : 98 b/s
Count of elements : 258
Compression mode : Lossless
Stream size : 16.6 KiB (0%)
Language : French
Default : No
Forced : No

Text #6
ID : 8
Format : ASS
Codec ID : S_TEXT/ASS
Codec ID/Info : Advanced Sub Station Alpha
Duration : 23 min 6 s
Bit rate : 117 b/s
Count of elements : 304
Compression mode : Lossless
Stream size : 19.9 KiB (0%)
Language : Italian
Default : No
Forced : No

Text #7
ID : 9
Format : ASS
Codec ID : S_TEXT/ASS
Codec ID/Info : Advanced Sub Station Alpha
Duration : 23 min 41 s
Bit rate : 129 b/s
Count of elements : 304
Compression mode : Lossless
Stream size : 22.4 KiB (0%)
Language : Portuguese
Default : No
Forced : No

Text #8
ID : 10
Format : ASS
Codec ID : S_TEXT/ASS
Codec ID/Info : Advanced Sub Station Alpha
Duration : 23 min 6 s
Bit rate : 131 b/s
Count of elements : 303
Compression mode : Lossless
Stream size : 22.2 KiB (0%)
Language : Arabic
Default : No
Forced : No


Screenshots

Tenshi no 3P! (2017)

Tenshi no 3P! (2017)

Tenshi no 3P! (2017)


My publications | Rss Channel