To Be Heroine (2018)

Posted By: Lebedev30
To Be Heroine (2018)

To Be Heroine (2018)
WEBRip | MKV | 1920x1080 | H264@4671 Kbps | 8x ~ 25mn | 8x ~800 Mb
日本語 AAC@128 Kbps | 2 channels | Subtitles: English, Español, Português, Русский, Italiano, Deutsch, Français
Genre: angst, rotten world, tragedy


Description:
Everyone around Hanaya Futaba (花屋二葉) expects her to grow up and become an adult, and she's lost the ability to keep herself mentally balanced. At the bottom of her heart, her childish self is still there, and still strong. One day she wanders into another dimension, a world where the light has been lost, and darkness rules. The people there exist as babies wearing only their underpants. The clothes they wear can be summoned as powerful fighters called "Spiclo" (Spirit Cloth). In this world, a battle was being fought between light and darkness… However, this battle between light and darkness in another dimension was actually the battle between hope and despair in Futaba's heart…




01. Being from Another World
02. The Magic Words
03. Loyalty and Betrayal
04. A World That Vanished
05. Attack of the Darkness
06. Battle Against Overwhelming Odds
07. What You Gave Me
S1. Special


General
Format : Matroska
Format version : Version 4 / Version 2
File size : 813 MiB
Duration : 23 min 40 s
Overall bit rate : 4 803 kb/s
Encoded date : UTC 2018-05-19 13:12:22
Writing application : mkvmerge v23.0.0 ('The Bride Said No') 32-bit
Writing library : libebml v1.3.6 + libmatroska v1.4.9

Video
ID : 1
Format : AVC
Format/Info : Advanced Video Codec
Format profile : High@L4
Format settings : CABAC / 4 Ref Frames
Format settings, CABAC : Yes
Format settings, RefFrames : 4 frames
Codec ID : V_MPEG4/ISO/AVC
Duration : 23 min 39 s
Bit rate : 4 671 kb/s
Width : 1 920 pixels
Height : 1 080 pixels
Display aspect ratio : 16:9
Frame rate mode : Constant
Frame rate : 23.976 (24000/1001) FPS
Color space : YUV
Chroma subsampling : 4:2:0
Bit depth : 8 bits
Scan type : Progressive
Bits/(Pixel*Frame) : 0.094
Stream size : 791 MiB (97%)
Writing library : x264 core 142
Encoding settings : cabac=1 / ref=4 / deblock=1:1:1 / analyse=0x3:0x113 / me=umh / subme=8 / psy=1 / psy_rd=0.40:0.00 / mixed_ref=1 / me_range=16 / chroma_me=1 / trellis=1 / 8x8dct=1 / cqm=0 / deadzone=21,11 / fast_pskip=1 / chroma_qp_offset=-2 / threads=12 / lookahead_threads=2 / sliced_threads=0 / nr=0 / decimate=1 / interlaced=0 / bluray_compat=0 / constrained_intra=0 / bframes=3 / b_pyramid=2 / b_adapt=2 / b_bias=0 / direct=3 / weightb=1 / open_gop=0 / weightp=2 / keyint=48 / keyint_min=24 / scenecut=40 / intra_refresh=0 / rc_lookahead=48 / rc=crf / mbtree=1 / crf=15.0 / qcomp=0.60 / qpmin=0 / qpmax=69 / qpstep=4 / vbv_maxrate=8000 / vbv_bufsize=12000 / crf_max=0.0 / nal_hrd=none / filler=0 / ip_ratio=1.40 / aq=1:0.60
Default : Yes
Forced : No

Audio
ID : 2
Format : AAC
Format/Info : Advanced Audio Codec
Format profile : LC
Codec ID : A_AAC-2
Duration : 23 min 40 s
Bit rate : 128 kb/s
Channel(s) : 2 channels
Channel positions : Front: L R
Sampling rate : 44.1 kHz
Frame rate : 43.066 FPS (1024 SPF)
Compression mode : Lossy
Delay relative to video : -83 ms
Stream size : 21.7 MiB (3%)
Default : Yes
Forced : No

Text #1
ID : 3
Format : ASS
Codec ID : S_TEXT/ASS
Codec ID/Info : Advanced Sub Station Alpha
Duration : 22 min 0 s
Bit rate : 159 b/s
Count of elements : 426
Compression mode : Lossless
Stream size : 25.6 KiB (0%)
Title : English(US)
Language : English
Default : Yes
Forced : No

Text #2
ID : 4
Format : ASS
Codec ID : S_TEXT/ASS
Codec ID/Info : Advanced Sub Station Alpha
Duration : 22 min 0 s
Bit rate : 170 b/s
Count of elements : 427
Compression mode : Lossless
Stream size : 27.5 KiB (0%)
Title : Deutsch
Language : German
Default : No
Forced : No

Text #3
ID : 5
Format : ASS
Codec ID : S_TEXT/ASS
Codec ID/Info : Advanced Sub Station Alpha
Duration : 22 min 3 s
Bit rate : 156 b/s
Count of elements : 418
Compression mode : Lossless
Stream size : 25.3 KiB (0%)
Title : Espanol(Espana)
Language : Spanish
Default : No
Forced : No

Text #4
ID : 6
Format : ASS
Codec ID : S_TEXT/ASS
Codec ID/Info : Advanced Sub Station Alpha
Duration : 22 min 3 s
Bit rate : 157 b/s
Count of elements : 418
Compression mode : Lossless
Stream size : 25.5 KiB (0%)
Title : Espanol
Language : Spanish
Default : No
Forced : No

Text #5
ID : 7
Format : ASS
Codec ID : S_TEXT/ASS
Codec ID/Info : Advanced Sub Station Alpha
Duration : 22 min 0 s
Bit rate : 184 b/s
Count of elements : 398
Compression mode : Lossless
Stream size : 29.8 KiB (0%)
Title : Francais(France)
Language : French
Default : No
Forced : No

Text #6
ID : 8
Format : ASS
Codec ID : S_TEXT/ASS
Codec ID/Info : Advanced Sub Station Alpha
Duration : 22 min 3 s
Bit rate : 168 b/s
Count of elements : 439
Compression mode : Lossless
Stream size : 27.2 KiB (0%)
Title : Italiano
Language : Italian
Default : No
Forced : No

Text #7
ID : 9
Format : ASS
Codec ID : S_TEXT/ASS
Codec ID/Info : Advanced Sub Station Alpha
Duration : 22 min 0 s
Bit rate : 159 b/s
Count of elements : 425
Compression mode : Lossless
Stream size : 25.6 KiB (0%)
Title : Portugues(Brasil)
Language : Portuguese
Default : No
Forced : No

Text #8
ID : 10
Format : ASS
Codec ID : S_TEXT/ASS
Codec ID/Info : Advanced Sub Station Alpha
Duration : 22 min 0 s
Bit rate : 196 b/s
Count of elements : 428
Compression mode : Lossless
Stream size : 31.6 KiB (0%)
Title : Russian
Language : Russian
Default : No
Forced : No


Screenshots

To Be Heroine (2018)

To Be Heroine (2018)

To Be Heroine (2018)


My publications | Rss Channel