Tags
Language
Tags
December 2022
Su Mo Tu We Th Fr Sa
27 28 29 30 1 2 3
4 5 6 7 8 9 10
11 12 13 14 15 16 17
18 19 20 21 22 23 24
25 26 27 28 29 30 31

Toaru Kagaku no Railgun (2009-2010)

Posted By: Lebedev30
Toaru Kagaku no Railgun (2009-2010)

Toaru Kagaku no Railgun (2009-2010)
WEBRip | MKV | 1920x1080 | H264@3160 Kbps | 24x ~ 25mn | 24x ~600 Mb
日本語 E-AC-3@128 Kbps | 2 channels | Subtitles: العربية, English, Español, Português, Русский, Italiano, Deutsch, Français, 日本語
Genre: action, comedy, conspiracy, dystopia, fantasy, science fiction, seinen, super power


Description:
* Based on a manga by the same name, written by Kamachi Kazuma and illustrated by Fuyukawa Motoi, which in itself is a spin-off of the light novel, manga and anime series Toaru Majutsu no Index.

Academy City is the home to circa 2.3 million citizens, about 80% of whom are students working to develop psychic powers and advanced technology. Students are ranked according to levels corresponding to their psychic powers: those without any are ranked at Level 0, and those with some manner of powers progress from Level 1, the weakest, to Level 5, the strongest. Only seven students in the whole city are ranked Level 5, and these seven are ranked among themselves as well.

Electro-master Misaka Mikoto is a headstrong Level 5 esper, ranked third in the city. Her perverted and passionate roommate, Shirai Kuroko, is a Level 4 Teleporter and a member of law enforcement and public safety corps Judgment. Uiharu Kazari is Kuroko's shy Level 1 partner at Judgment and a specialist at hacking and information gathering. Saten Ruiko is Kazari's mischievous friend who has a habit of flipping the latter's skirt to find out what color of underwear she is currently wearing, much to her chagrin, and a Level 0.

Those four friends would normally be simply carrying on with their daily lives like always, but some sources of disturbance to their routines have surfaced. Recently, several strange urban legends have surfaced in Academy City: a mysterious woman who will simply strip in the middle of the city, seemingly oblivious to everyone around her; a boy of unknown powers who can easily negate any force and deflect any attacks, no matter the form they take; a way to artificially increase one's psychic level, quickly making many students into much stronger espers than they were before, and which might work even for those ranked Level 0…

Almost as if these legends themselves weren't strange enough on their own, something even stranger takes place: while there may be some exaggerations in how they are told, they are, one by one, all confirmed to be, in essence, true. And since people often tend to become drunk with power, the case of artificial powering-ups has some quite disturbing ramifications: increased powers in the hands of reckless people is quickly leading to more and more severe crimes…






01. Electromaster
02. When Working Under a Hot Sun, Rehydration Is Essential
03. Tokiwadai is Targeted
04. Urban Legends
05. A Certain Pair of New Trainees
06. Everyone Is Proactive When It Comes to This
07. Abilities and Powers
08. Level Upper
09. Majority Report
10. Silent Majority
11. Dr. Kiyama
12. AIM Burst
13. A Bikini Divides the Eyeline Between Top and Bottom, But a One-Piece Shows Off the Figure, So They Only Flatter the Slender
14. Special Workshop
15. Skill Out
16. Academy City
17. Tsuzuri`s Summer Vacation
18. Asunaro Park
19. Midsummer Festival
20. Poltergeist
21. Voices
22. Level 6
23. What Is It You See in Your Eyes Right Now?
24. Dear My Friends


General
Format : Matroska
Format version : Version 4 / Version 2
File size : 557 MiB
Duration : 23 min 43 s
Overall bit rate mode : Variable
Overall bit rate : 3 282 kb/s
Encoded date : UTC 2019-09-21 15:38:46
Writing application : mkvmerge v34.0.0 ('Sight and Seen') 64-bit
Writing library : libebml v1.3.7 + libmatroska v1.5.0

Video
ID : 1
Format : AVC
Format/Info : Advanced Video Codec
Format profile : Main@L4
Format settings : CABAC / 3 Ref Frames
Format settings, CABAC : Yes
Format settings, RefFrames : 3 frames
Codec ID : V_MPEG4/ISO/AVC
Duration : 23 min 43 s
Bit rate mode : Variable
Bit rate : 3 160 kb/s
Maximum bit rate : 4 740 kb/s
Width : 1 920 pixels
Height : 1 080 pixels
Display aspect ratio : 16:9
Frame rate mode : Constant
Frame rate : 23.976 (24000/1001) FPS
Color space : YUV
Chroma subsampling : 4:2:0
Bit depth : 8 bits
Scan type : Progressive
Bits/(Pixel*Frame) : 0.064
Stream size : 534 MiB (96%)
Writing library : x264 core 148
Encoding settings : cabac=1 / ref=3 / deblock=1:0:0 / analyse=0x1:0x111 / me=umh / subme=10 / psy=1 / psy_rd=1.00:0.00 / mixed_ref=1 / me_range=24 / chroma_me=1 / trellis=2 / 8x8dct=0 / cqm=0 / deadzone=21,11 / fast_pskip=1 / chroma_qp_offset=-2 / threads=6 / lookahead_threads=1 / sliced_threads=0 / nr=0 / decimate=1 / interlaced=0 / bluray_compat=0 / stitchable=1 / constrained_intra=0 / bframes=2 / b_pyramid=0 / b_adapt=2 / b_bias=0 / direct=3 / weightb=1 / open_gop=0 / weightp=2 / keyint=48 / keyint_min=25 / scenecut=0 / intra_refresh=0 / rc_lookahead=48 / rc=2pass / mbtree=1 / bitrate=3160 / ratetol=1.0 / qcomp=0.50 / qpmin=6 / qpmax=51 / qpstep=4 / cplxblur=20.0 / qblur=0.5 / vbv_maxrate=4740 / vbv_bufsize=6320 / nal_hrd=vbr / filler=0 / ip_ratio=1.40 / aq=1:1.00
Language : Japanese
Default : Yes
Forced : No

Audio
ID : 2
Format : E-AC-3
Format/Info : Enhanced Audio Coding 3
Codec ID : A_EAC3
Duration : 23 min 43 s
Bit rate mode : Constant
Bit rate : 128 kb/s
Channel(s) : 2 channels
Channel positions : Front: L R
Sampling rate : 48.0 kHz
Frame rate : 187.500 FPS (256 SPF)
Compression mode : Lossy
Stream size : 21.7 MiB (4%)
Language : Japanese
Service kind : Complete Main
Default : Yes
Forced : No

Text #1
ID : 3
Format : ASS
Codec ID : S_TEXT/ASS
Codec ID/Info : Advanced Sub Station Alpha
Duration : 23 min 22 s
Bit rate : 116 b/s
Count of elements : 335
Compression mode : Lossless
Stream size : 19.9 KiB (0%)
Language : English
Default : Yes
Forced : No

Text #2
ID : 4
Format : ASS
Codec ID : S_TEXT/ASS
Codec ID/Info : Advanced Sub Station Alpha
Duration : 23 min 21 s
Bit rate : 166 b/s
Count of elements : 390
Compression mode : Lossless
Stream size : 28.4 KiB (0%)
Language : Arabic
Default : No
Forced : No

Text #3
ID : 5
Format : ASS
Codec ID : S_TEXT/ASS
Codec ID/Info : Advanced Sub Station Alpha
Duration : 23 min 21 s
Bit rate : 169 b/s
Count of elements : 395
Compression mode : Lossless
Stream size : 29.1 KiB (0%)
Language : Russian
Default : No
Forced : No

Text #4
ID : 6
Format : ASS
Codec ID : S_TEXT/ASS
Codec ID/Info : Advanced Sub Station Alpha
Duration : 23 min 23 s
Bit rate : 115 b/s
Count of elements : 394
Compression mode : Lossless
Stream size : 19.8 KiB (0%)
Language : Spanish
Default : No
Forced : No

Text #5
ID : 7
Format : ASS
Codec ID : S_TEXT/ASS
Codec ID/Info : Advanced Sub Station Alpha
Duration : 23 min 23 s
Bit rate : 120 b/s
Count of elements : 396
Compression mode : Lossless
Stream size : 20.6 KiB (0%)
Language : Spanish
Default : No
Forced : No

Text #6
ID : 8
Format : ASS
Codec ID : S_TEXT/ASS
Codec ID/Info : Advanced Sub Station Alpha
Duration : 23 min 22 s
Bit rate : 120 b/s
Count of elements : 398
Compression mode : Lossless
Stream size : 20.7 KiB (0%)
Language : Portuguese
Default : No
Forced : No

Text #7
ID : 9
Format : ASS
Codec ID : S_TEXT/ASS
Codec ID/Info : Advanced Sub Station Alpha
Duration : 23 min 24 s
Bit rate : 115 b/s
Count of elements : 386
Compression mode : Lossless
Stream size : 19.7 KiB (0%)
Language : German
Default : No
Forced : No

Text #8
ID : 10
Format : ASS
Codec ID : S_TEXT/ASS
Codec ID/Info : Advanced Sub Station Alpha
Duration : 23 min 22 s
Bit rate : 126 b/s
Count of elements : 385
Compression mode : Lossless
Stream size : 21.7 KiB (0%)
Language : French
Default : No
Forced : No

Text #9
ID : 11
Format : ASS
Codec ID : S_TEXT/ASS
Codec ID/Info : Advanced Sub Station Alpha
Duration : 23 min 23 s
Bit rate : 119 b/s
Count of elements : 386
Compression mode : Lossless
Stream size : 20.4 KiB (0%)
Language : Italian
Default : No
Forced : No

Text #10
ID : 12
Format : ASS
Codec ID : S_TEXT/ASS
Codec ID/Info : Advanced Sub Station Alpha
Duration : 23 min 23 s
Bit rate : 109 b/s
Count of elements : 388
Compression mode : Lossless
Stream size : 18.7 KiB (0%)
Language : Polish
Default : No
Forced : No

Text #11
ID : 13
Format : ASS
Codec ID : S_TEXT/ASS
Codec ID/Info : Advanced Sub Station Alpha
Duration : 23 min 23 s
Bit rate : 109 b/s
Count of elements : 391
Compression mode : Lossless
Stream size : 18.7 KiB (0%)
Language : Dutch
Default : No
Forced : No

Text #12
ID : 14
Format : ASS
Codec ID : S_TEXT/ASS
Codec ID/Info : Advanced Sub Station Alpha
Duration : 23 min 23 s
Bit rate : 124 b/s
Count of elements : 393
Compression mode : Lossless
Stream size : 21.4 KiB (0%)
Language : Norwegian Bokmal
Default : No
Forced : No

Text #13
ID : 15
Format : ASS
Codec ID : S_TEXT/ASS
Codec ID/Info : Advanced Sub Station Alpha
Duration : 23 min 23 s
Bit rate : 123 b/s
Count of elements : 396
Compression mode : Lossless
Stream size : 21.1 KiB (0%)
Language : Finnish
Default : No
Forced : No

Text #14
ID : 16
Format : ASS
Codec ID : S_TEXT/ASS
Codec ID/Info : Advanced Sub Station Alpha
Duration : 23 min 23 s
Bit rate : 118 b/s
Count of elements : 389
Compression mode : Lossless
Stream size : 20.3 KiB (0%)
Language : Turkish
Default : No
Forced : No

Text #15
ID : 17
Format : ASS
Codec ID : S_TEXT/ASS
Codec ID/Info : Advanced Sub Station Alpha
Duration : 23 min 23 s
Bit rate : 104 b/s
Count of elements : 307
Compression mode : Lossless
Stream size : 18.0 KiB (0%)
Language : Swedish
Default : No
Forced : No

Text #16
ID : 18
Format : ASS
Codec ID : S_TEXT/ASS
Codec ID/Info : Advanced Sub Station Alpha
Duration : 23 min 23 s
Bit rate : 167 b/s
Count of elements : 386
Compression mode : Lossless
Stream size : 28.6 KiB (0%)
Language : Greek
Default : No
Forced : No

Text #17
ID : 19
Format : ASS
Codec ID : S_TEXT/ASS
Codec ID/Info : Advanced Sub Station Alpha
Duration : 23 min 21 s
Bit rate : 153 b/s
Count of elements : 384
Compression mode : Lossless
Stream size : 26.3 KiB (0%)
Language : Hebrew
Default : No
Forced : No

Text #18
ID : 20
Format : ASS
Codec ID : S_TEXT/ASS
Codec ID/Info : Advanced Sub Station Alpha
Duration : 23 min 21 s
Bit rate : 122 b/s
Count of elements : 386
Compression mode : Lossless
Stream size : 21.0 KiB (0%)
Language : rom
Default : No
Forced : No

Text #19
ID : 21
Format : ASS
Codec ID : S_TEXT/ASS
Codec ID/Info : Advanced Sub Station Alpha
Duration : 23 min 23 s
Bit rate : 112 b/s
Count of elements : 365
Compression mode : Lossless
Stream size : 19.3 KiB (0%)
Language : Danish
Default : No
Forced : No

Text #20
ID : 22
Format : ASS
Codec ID : S_TEXT/ASS
Codec ID/Info : Advanced Sub Station Alpha
Duration : 23 min 39 s
Bit rate : 181 b/s
Count of elements : 501
Compression mode : Lossless
Stream size : 31.4 KiB (0%)
Language : Japanese
Default : No
Forced : No

Text #21
ID : 23
Format : ASS
Codec ID : S_TEXT/ASS
Codec ID/Info : Advanced Sub Station Alpha
Duration : 23 min 23 s
Bit rate : 115 b/s
Count of elements : 377
Compression mode : Lossless
Stream size : 19.7 KiB (0%)
Language : Czech
Default : No
Forced : No

Text #22
ID : 24
Format : ASS
Codec ID : S_TEXT/ASS
Codec ID/Info : Advanced Sub Station Alpha
Duration : 23 min 23 s
Bit rate : 128 b/s
Count of elements : 395
Compression mode : Lossless
Stream size : 22.0 KiB (0%)
Language : Hungarian
Default : No
Forced : No


Screenshots

Toaru Kagaku no Railgun (2009-2010)

Toaru Kagaku no Railgun (2009-2010)

Toaru Kagaku no Railgun (2009-2010)


My publications | Rss Channel