Tags
Language
Tags
December 2022
Su Mo Tu We Th Fr Sa
27 28 29 30 1 2 3
4 5 6 7 8 9 10
11 12 13 14 15 16 17
18 19 20 21 22 23 24
25 26 27 28 29 30 31

Toaru Majutsu no Index II (2010-2011)

Posted By: Lebedev30
Toaru Majutsu no Index II (2010-2011)

Toaru Majutsu no Index II (2010-2011)
WEBRip | MKV | 1920x1080 | H264@5800 Kbps | 24x ~ 25mn | 24x ~0.9 Gb
日本語 E-AC-3@128 Kbps | 2 channels | Subtitles: العربية, English, Español, Português, Русский, Italiano, Deutsch, Français, 日本語
Genre: action, fantasy, harem, magic, science fiction, seinen, super power, violence


Description:
* Based on a light novel series by Kamachi Kazuma, illustrated by Haimura Kiyotaka.

On a transfer from England to Japan the "The Book of the Law" has been stolen. This is all the more disturbing since deciphering this book supposedly spells the end of the Roman Catholic Church, and thus destroys the equilibrium of power in the world. To make matters worse the nun, Orsola Aquinas, who recently discovered a way to decipher the book, has been kidnapped…

At the Academy City the Daihaseisai, a sports festival, is underway. This "opportunity" is used to trade the Stab Sword — a spiritual weapon capable of killing Saints with one blow. But as it turns out the actual sword in question is far more dangerous…






01. The Last Day (August 31)
02. The Book of Law
03. The Amakusa Church
04. Sheol Fear (Voice of the Magicbane)
05. Lotus Wand
06. Remnant (Wreckage)
07. Move Point (Coordinate Relocation)
08. The Daihasei Festival
09. Route Disturb (Pursuit Inhibited)
10. Shorthand (Stenographic Sourcebook)
11. Stab Sword
12. Belvedere (The Observatory)
13. Croce di Pietro (Apostolic Cross)
14. City of Water
15. Queen`s Fleet
16. Rosary of the Appointed Time
17. Penalty Game
18. Serial Number (Specimen Number)
19. The Researcher (Amata Kihara)
20. Hound Dog (Hound Squad)
21. Testament (Learning Device)
22. The Divine Retribution Spell
23. Prewar
24. Skill Out (Armed Gang)


General
Format : Matroska
Format version : Version 4 / Version 2
File size : 1 003 MiB
Duration : 23 min 45 s
Overall bit rate mode : Variable
Overall bit rate : 5 900 kb/s
Encoded date : UTC 2019-09-21 15:38:46
Writing application : mkvmerge v34.0.0 ('Sight and Seen') 64-bit
Writing library : libebml v1.3.7 + libmatroska v1.5.0

Video
ID : 1
Format : AVC
Format/Info : Advanced Video Codec
Format profile : Main@L4
Format settings : CABAC / 3 Ref Frames
Format settings, CABAC : Yes
Format settings, RefFrames : 3 frames
Codec ID : V_MPEG4/ISO/AVC
Duration : 23 min 45 s
Bit rate mode : Variable
Bit rate : 5 800 kb/s
Maximum bit rate : 8 700 kb/s
Width : 1 920 pixels
Height : 1 080 pixels
Display aspect ratio : 16:9
Frame rate mode : Constant
Frame rate : 23.976 (24000/1001) FPS
Color space : YUV
Chroma subsampling : 4:2:0
Bit depth : 8 bits
Scan type : Progressive
Bits/(Pixel*Frame) : 0.117
Stream size : 980 MiB (98%)
Writing library : x264 core 118
Encoding settings : cabac=1 / ref=3 / deblock=1:0:0 / analyse=0x1:0x111 / me=umh / subme=10 / psy=1 / psy_rd=1.00:0.00 / mixed_ref=1 / me_range=24 / chroma_me=1 / trellis=2 / 8x8dct=0 / cqm=0 / deadzone=21,11 / fast_pskip=1 / chroma_qp_offset=-2 / threads=8 / sliced_threads=0 / nr=0 / decimate=1 / interlaced=0 / bluray_compat=0 / constrained_intra=0 / bframes=2 / b_pyramid=0 / b_adapt=2 / b_bias=0 / direct=3 / weightb=1 / open_gop=0 / weightp=2 / keyint=48 / keyint_min=25 / scenecut=0 / intra_refresh=0 / rc_lookahead=0 / rc=2pass / mbtree=1 / bitrate=5800 / ratetol=1.0 / qcomp=0.50 / qpmin=6 / qpmax=51 / qpstep=4 / cplxblur=20.0 / qblur=0.5 / vbv_maxrate=8700 / vbv_bufsize=11600 / nal_hrd=vbr / ip_ratio=1.40 / aq=1:1.00
Language : Japanese
Default : Yes
Forced : No

Audio
ID : 2
Format : E-AC-3
Format/Info : Enhanced Audio Coding 3
Codec ID : A_EAC3
Duration : 23 min 45 s
Bit rate mode : Constant
Bit rate : 128 kb/s
Channel(s) : 2 channels
Channel positions : Front: L R
Sampling rate : 48.0 kHz
Frame rate : 187.500 FPS (256 SPF)
Compression mode : Lossy
Stream size : 21.8 MiB (2%)
Language : Japanese
Service kind : Complete Main
Default : Yes
Forced : No

Text #1
ID : 3
Format : ASS
Codec ID : S_TEXT/ASS
Codec ID/Info : Advanced Sub Station Alpha
Duration : 23 min 19 s
Bit rate : 96 b/s
Count of elements : 279
Compression mode : Lossless
Stream size : 16.5 KiB (0%)
Language : English
Default : Yes
Forced : No

Text #2
ID : 4
Format : ASS
Codec ID : S_TEXT/ASS
Codec ID/Info : Advanced Sub Station Alpha
Duration : 23 min 21 s
Bit rate : 122 b/s
Count of elements : 292
Compression mode : Lossless
Stream size : 21.0 KiB (0%)
Language : Arabic
Default : No
Forced : No

Text #3
ID : 5
Format : ASS
Codec ID : S_TEXT/ASS
Codec ID/Info : Advanced Sub Station Alpha
Duration : 23 min 21 s
Bit rate : 122 b/s
Count of elements : 294
Compression mode : Lossless
Stream size : 20.9 KiB (0%)
Language : Russian
Default : No
Forced : No

Text #4
ID : 6
Format : ASS
Codec ID : S_TEXT/ASS
Codec ID/Info : Advanced Sub Station Alpha
Duration : 23 min 20 s
Bit rate : 86 b/s
Count of elements : 279
Compression mode : Lossless
Stream size : 14.7 KiB (0%)
Language : Spanish
Default : No
Forced : No

Text #5
ID : 7
Format : ASS
Codec ID : S_TEXT/ASS
Codec ID/Info : Advanced Sub Station Alpha
Duration : 23 min 21 s
Bit rate : 92 b/s
Count of elements : 294
Compression mode : Lossless
Stream size : 15.8 KiB (0%)
Language : Spanish
Default : No
Forced : No

Text #6
ID : 8
Format : ASS
Codec ID : S_TEXT/ASS
Codec ID/Info : Advanced Sub Station Alpha
Duration : 23 min 22 s
Bit rate : 92 b/s
Count of elements : 291
Compression mode : Lossless
Stream size : 15.8 KiB (0%)
Language : Portuguese
Default : No
Forced : No

Text #7
ID : 9
Format : ASS
Codec ID : S_TEXT/ASS
Codec ID/Info : Advanced Sub Station Alpha
Duration : 23 min 21 s
Bit rate : 87 b/s
Count of elements : 273
Compression mode : Lossless
Stream size : 14.9 KiB (0%)
Language : German
Default : No
Forced : No

Text #8
ID : 10
Format : ASS
Codec ID : S_TEXT/ASS
Codec ID/Info : Advanced Sub Station Alpha
Duration : 23 min 21 s
Bit rate : 96 b/s
Count of elements : 294
Compression mode : Lossless
Stream size : 16.5 KiB (0%)
Language : French
Default : No
Forced : No

Text #9
ID : 11
Format : ASS
Codec ID : S_TEXT/ASS
Codec ID/Info : Advanced Sub Station Alpha
Duration : 23 min 20 s
Bit rate : 87 b/s
Count of elements : 284
Compression mode : Lossless
Stream size : 15.0 KiB (0%)
Language : Italian
Default : No
Forced : No

Text #10
ID : 12
Format : ASS
Codec ID : S_TEXT/ASS
Codec ID/Info : Advanced Sub Station Alpha
Duration : 23 min 19 s
Bit rate : 84 b/s
Count of elements : 284
Compression mode : Lossless
Stream size : 14.5 KiB (0%)
Language : Polish
Default : No
Forced : No

Text #11
ID : 13
Format : ASS
Codec ID : S_TEXT/ASS
Codec ID/Info : Advanced Sub Station Alpha
Duration : 23 min 21 s
Bit rate : 87 b/s
Count of elements : 274
Compression mode : Lossless
Stream size : 15.0 KiB (0%)
Language : Dutch
Default : No
Forced : No

Text #12
ID : 14
Format : ASS
Codec ID : S_TEXT/ASS
Codec ID/Info : Advanced Sub Station Alpha
Duration : 23 min 21 s
Bit rate : 92 b/s
Count of elements : 295
Compression mode : Lossless
Stream size : 15.8 KiB (0%)
Language : Norwegian Bokmal
Default : No
Forced : No

Text #13
ID : 15
Format : ASS
Codec ID : S_TEXT/ASS
Codec ID/Info : Advanced Sub Station Alpha
Duration : 23 min 21 s
Bit rate : 81 b/s
Count of elements : 284
Compression mode : Lossless
Stream size : 13.9 KiB (0%)
Language : Finnish
Default : No
Forced : No

Text #14
ID : 16
Format : ASS
Codec ID : S_TEXT/ASS
Codec ID/Info : Advanced Sub Station Alpha
Duration : 23 min 21 s
Bit rate : 93 b/s
Count of elements : 290
Compression mode : Lossless
Stream size : 16.0 KiB (0%)
Language : Turkish
Default : No
Forced : No

Text #15
ID : 17
Format : ASS
Codec ID : S_TEXT/ASS
Codec ID/Info : Advanced Sub Station Alpha
Duration : 23 min 21 s
Bit rate : 84 b/s
Count of elements : 237
Compression mode : Lossless
Stream size : 14.4 KiB (0%)
Language : Swedish
Default : No
Forced : No

Text #16
ID : 18
Format : ASS
Codec ID : S_TEXT/ASS
Codec ID/Info : Advanced Sub Station Alpha
Duration : 23 min 20 s
Bit rate : 132 b/s
Count of elements : 284
Compression mode : Lossless
Stream size : 22.7 KiB (0%)
Language : Greek
Default : No
Forced : No

Text #17
ID : 19
Format : ASS
Codec ID : S_TEXT/ASS
Codec ID/Info : Advanced Sub Station Alpha
Duration : 23 min 20 s
Bit rate : 116 b/s
Count of elements : 291
Compression mode : Lossless
Stream size : 19.9 KiB (0%)
Language : Hebrew
Default : No
Forced : No

Text #18
ID : 20
Format : ASS
Codec ID : S_TEXT/ASS
Codec ID/Info : Advanced Sub Station Alpha
Duration : 23 min 21 s
Bit rate : 87 b/s
Count of elements : 291
Compression mode : Lossless
Stream size : 15.0 KiB (0%)
Language : rom
Default : No
Forced : No

Text #19
ID : 21
Format : ASS
Codec ID : S_TEXT/ASS
Codec ID/Info : Advanced Sub Station Alpha
Duration : 23 min 21 s
Bit rate : 95 b/s
Count of elements : 297
Compression mode : Lossless
Stream size : 16.3 KiB (0%)
Language : Danish
Default : No
Forced : No

Text #20
ID : 22
Format : ASS
Codec ID : S_TEXT/ASS
Codec ID/Info : Advanced Sub Station Alpha
Duration : 23 min 35 s
Bit rate : 140 b/s
Count of elements : 371
Compression mode : Lossless
Stream size : 24.4 KiB (0%)
Language : Japanese
Default : No
Forced : No

Text #21
ID : 23
Format : ASS
Codec ID : S_TEXT/ASS
Codec ID/Info : Advanced Sub Station Alpha
Duration : 23 min 21 s
Bit rate : 91 b/s
Count of elements : 297
Compression mode : Lossless
Stream size : 15.7 KiB (0%)
Language : Czech
Default : No
Forced : No

Text #22
ID : 24
Format : ASS
Codec ID : S_TEXT/ASS
Codec ID/Info : Advanced Sub Station Alpha
Duration : 23 min 20 s
Bit rate : 89 b/s
Count of elements : 287
Compression mode : Lossless
Stream size : 15.3 KiB (0%)
Language : Hungarian
Default : No
Forced : No


Screenshots

Toaru Majutsu no Index II (2010-2011)

Toaru Majutsu no Index II (2010-2011)

Toaru Majutsu no Index II (2010-2011)


My publications | Rss Channel