Tags
Language
Tags
December 2022
Su Mo Tu We Th Fr Sa
27 28 29 30 1 2 3
4 5 6 7 8 9 10
11 12 13 14 15 16 17
18 19 20 21 22 23 24
25 26 27 28 29 30 31

Toaru Majutsu no Index III (2018-2019)

Posted By: Lebedev30
Toaru Majutsu no Index III (2018-2019)

Toaru Majutsu no Index III (2018-2019)
WEBRip | MKV | 1920x1080 | H264@4661 Kbps | 26x ~ 25mn | 26x ~800 Mb
日本語 AAC@128 Kbps | 2 channels | Subtitles: العربية, English, Español, Português, Русский, Italiano, Deutsch, Français
Genre: action, comedy, conspiracy, contemporary fantasy, fantasy, harem, love polygon, magic, romance, school life, science fiction, super power, violence


Description:
* Based on a light novel series written by Kamachi Kazuma and illustrated by Haimura Kiyotaka.

Located in western Tokyo is the enormous Academy City. With a total population of over 2.3 million, roughly 80% of which are students, this city has a unique curriculum in place to develop supernatural abilities, and the students' abilities are rated in a range of six categories, from "powerless" at Level 0 to "super-powered" at Level 5.

A certain student, Kamijou Touma, is one of the students who lives in Academy City. An unusual power resides in his right hand: the illusion-canceling "Imagine Breaker," capable of nullifying even divine protection. For that reason, he is rated as "powerless," which puts him in danger of flunking out, and he spends his life plagued by misfortune.

As a result of a white-robed Sister falling out of the sky at the start of one summer vacation, Kamijou's school life took an extraordinary turn. After meeting this girl, one "Index Librorum Prohibitorum," who claimed to be fleeing from the world of magic, Kamijou became caught up in all sorts of adventures. Through the balancing act of solving cases on both the science side, which controls Academy City, and the magic side, with which Index is linked, his circle of acquaintances gradually expands. Eventually, the Roman Orthodox Church, the largest denomination on the magic side, turns their attention toward Kamijou.

In response to the magic side, the science side's Academy City also goes into action. However, there are others who step forward to resist the actions of a world that has abruptly started turning hostile. They are "heroes" who have greatly altered the course of fate through their interactions with Kamijou.

They also put their lives on the line to stand against both sides, just as Kamijou Touma has.

When science and magic cross paths a third time, the story really takes off!!






01. Unrest
02. The Right Seat of God
03. The Document of C
04. The Dark Side of Academy City
05. Dark Matter
06. Super-espers
07. The Third Level
08. Saint Breakout
09. Holy Mother Veneration
10. Sky Bus 365
11. British Labyrinth
12. Mercenary
13. Curtana Original
14. Heroes
15. Spark Signal
16. The Governing Board
17. Dragon
18. The Alliance of Independent Nations
19. Misaka Worst
20. A Reason to Protect
21. The Star of B`Tselem
22. Angel Power (Gabriel)
23. Fuse=Kazakiri
24. List of Prohibited Books (Index)
25. Wings
26. Son of God


General
Format : Matroska
Format version : Version 4 / Version 2
File size : 812 MiB
Duration : 23 min 45 s
Overall bit rate : 4 776 kb/s
Encoded date : UTC 2018-10-11 19:57:13
Writing application : mkvmerge v26.0.0 ('In The Game') 64-bit
Writing library : libebml v1.3.6 + libmatroska v1.4.9

Video
ID : 1
Format : AVC
Format/Info : Advanced Video Codec
Format profile : High@L4
Format settings : CABAC / 4 Ref Frames
Format settings, CABAC : Yes
Format settings, RefFrames : 4 frames
Codec ID : V_MPEG4/ISO/AVC
Duration : 23 min 40 s
Bit rate : 4 661 kb/s
Width : 1 920 pixels
Height : 1 080 pixels
Display aspect ratio : 16:9
Frame rate mode : Constant
Frame rate : 23.976 (24000/1001) FPS
Color space : YUV
Chroma subsampling : 4:2:0
Bit depth : 8 bits
Scan type : Progressive
Bits/(Pixel*Frame) : 0.094
Stream size : 789 MiB (97%)
Writing library : x264 core 142
Encoding settings : cabac=1 / ref=4 / deblock=1:1:1 / analyse=0x3:0x113 / me=umh / subme=8 / psy=1 / psy_rd=0.40:0.00 / mixed_ref=1 / me_range=16 / chroma_me=1 / trellis=1 / 8x8dct=1 / cqm=0 / deadzone=21,11 / fast_pskip=1 / chroma_qp_offset=-2 / threads=12 / lookahead_threads=2 / sliced_threads=0 / nr=0 / decimate=1 / interlaced=0 / bluray_compat=0 / constrained_intra=0 / bframes=3 / b_pyramid=2 / b_adapt=2 / b_bias=0 / direct=3 / weightb=1 / open_gop=0 / weightp=2 / keyint=48 / keyint_min=25 / scenecut=0 / intra_refresh=0 / rc_lookahead=48 / rc=crf / mbtree=1 / crf=15.0 / qcomp=0.60 / qpmin=0 / qpmax=69 / qpstep=4 / vbv_maxrate=8000 / vbv_bufsize=12000 / crf_max=0.0 / nal_hrd=none / filler=0 / ip_ratio=1.40 / aq=1:0.60
Default : Yes
Forced : No

Audio
ID : 2
Format : AAC
Format/Info : Advanced Audio Codec
Format profile : LC
Codec ID : A_AAC-2
Duration : 23 min 40 s
Bit rate : 128 kb/s
Channel(s) : 2 channels
Channel positions : Front: L R
Sampling rate : 44.1 kHz
Frame rate : 43.066 FPS (1024 SPF)
Compression mode : Lossy
Delay relative to video : -83 ms
Stream size : 21.7 MiB (3%)
Default : Yes
Forced : No

Text #1
ID : 3
Format : ASS
Codec ID : S_TEXT/ASS
Codec ID/Info : Advanced Sub Station Alpha
Duration : 23 min 42 s
Bit rate : 131 b/s
Count of elements : 345
Compression mode : Lossless
Stream size : 22.8 KiB (0%)
Title : English(US)
Language : English
Default : Yes
Forced : No

Text #2
ID : 4
Format : ASS
Codec ID : S_TEXT/ASS
Codec ID/Info : Advanced Sub Station Alpha
Duration : 23 min 38 s
Bit rate : 167 b/s
Count of elements : 390
Compression mode : Lossless
Stream size : 29.0 KiB (0%)
Title : Arabic
Language : Arabic
Default : No
Forced : No

Text #3
ID : 5
Format : ASS
Codec ID : S_TEXT/ASS
Codec ID/Info : Advanced Sub Station Alpha
Duration : 23 min 36 s
Bit rate : 150 b/s
Count of elements : 392
Compression mode : Lossless
Stream size : 26.0 KiB (0%)
Title : Francais(France)
Language : French
Default : No
Forced : No

Text #4
ID : 6
Format : ASS
Codec ID : S_TEXT/ASS
Codec ID/Info : Advanced Sub Station Alpha
Duration : 23 min 37 s
Bit rate : 140 b/s
Count of elements : 359
Compression mode : Lossless
Stream size : 24.3 KiB (0%)
Title : Deutsch
Language : German
Default : No
Forced : No

Text #5
ID : 7
Format : ASS
Codec ID : S_TEXT/ASS
Codec ID/Info : Advanced Sub Station Alpha
Duration : 23 min 36 s
Bit rate : 152 b/s
Count of elements : 422
Compression mode : Lossless
Stream size : 26.4 KiB (0%)
Title : Italiano
Language : Italian
Default : No
Forced : No

Text #6
ID : 8
Format : ASS
Codec ID : S_TEXT/ASS
Codec ID/Info : Advanced Sub Station Alpha
Duration : 23 min 36 s
Bit rate : 115 b/s
Count of elements : 333
Compression mode : Lossless
Stream size : 19.9 KiB (0%)
Title : Espanol(Espana)
Language : Spanish
Default : No
Forced : No

Text #7
ID : 9
Format : ASS
Codec ID : S_TEXT/ASS
Codec ID/Info : Advanced Sub Station Alpha
Duration : 23 min 36 s
Bit rate : 114 b/s
Count of elements : 333
Compression mode : Lossless
Stream size : 19.7 KiB (0%)
Title : Espanol
Language : Spanish
Default : No
Forced : No

Text #8
ID : 10
Format : ASS
Codec ID : S_TEXT/ASS
Codec ID/Info : Advanced Sub Station Alpha
Duration : 23 min 36 s
Bit rate : 126 b/s
Count of elements : 357
Compression mode : Lossless
Stream size : 22.0 KiB (0%)
Title : Portugues(Brasil)
Language : Portuguese
Default : No
Forced : No

Text #9
ID : 11
Format : ASS
Codec ID : S_TEXT/ASS
Codec ID/Info : Advanced Sub Station Alpha
Duration : 23 min 36 s
Bit rate : 188 b/s
Count of elements : 395
Compression mode : Lossless
Stream size : 32.6 KiB (0%)
Title : Russian
Language : Russian
Default : No
Forced : No


Screenshots

Toaru Majutsu no Index III (2018-2019)

Toaru Majutsu no Index III (2018-2019)

Toaru Majutsu no Index III (2018-2019)


My publications | Rss Channel