Tags
Language
Tags

Itou Junji: Collection (2018)

Posted By: Lebedev30
Itou Junji: Collection (2018)

Itou Junji: Collection (2018)
WEBRip | MKV | 1920x1080 | H264@4285 Kbps | 2x ~ 10mn | 2x ~300 Mb
日本語 AAC@128 Kbps | 2 channels | Subtitles: العربية, English, Español, Português, Русский, Italiano, Deutsch, Français
Genre: horror, seinen


Description:
* An omnibus of the works of horror mangaka Itou Junji, with each episode adapting a different story.






S1. Tomie
S2. Tomie Part 2


General
Format : Matroska
Format version : Version 4 / Version 2
File size : 329 MiB
Duration : 10 min 24 s
Overall bit rate : 4 416 kb/s
Encoded date : UTC 2018-09-12 14:58:43
Writing application : mkvmerge v26.0.0 ('In The Game') 64-bit
Writing library : libebml v1.3.6 + libmatroska v1.4.9

Video
ID : 1
Format : AVC
Format/Info : Advanced Video Codec
Format profile : High@L4
Format settings : CABAC / 4 Ref Frames
Format settings, CABAC : Yes
Format settings, RefFrames : 4 frames
Codec ID : V_MPEG4/ISO/AVC
Duration : 10 min 23 s
Bit rate : 4 285 kb/s
Width : 1 920 pixels
Height : 1 080 pixels
Display aspect ratio : 16:9
Frame rate mode : Constant
Frame rate : 23.976 (24000/1001) FPS
Color space : YUV
Chroma subsampling : 4:2:0
Bit depth : 8 bits
Scan type : Progressive
Bits/(Pixel*Frame) : 0.086
Stream size : 319 MiB (97%)
Writing library : x264 core 142
Encoding settings : cabac=1 / ref=4 / deblock=1:1:1 / analyse=0x3:0x113 / me=umh / subme=8 / psy=1 / psy_rd=0.40:0.00 / mixed_ref=1 / me_range=16 / chroma_me=1 / trellis=1 / 8x8dct=1 / cqm=0 / deadzone=21,11 / fast_pskip=1 / chroma_qp_offset=-2 / threads=12 / lookahead_threads=2 / sliced_threads=0 / nr=0 / decimate=1 / interlaced=0 / bluray_compat=0 / constrained_intra=0 / bframes=3 / b_pyramid=2 / b_adapt=2 / b_bias=0 / direct=3 / weightb=1 / open_gop=0 / weightp=2 / keyint=48 / keyint_min=24 / scenecut=40 / intra_refresh=0 / rc_lookahead=48 / rc=crf / mbtree=1 / crf=15.0 / qcomp=0.60 / qpmin=0 / qpmax=69 / qpstep=4 / vbv_maxrate=8000 / vbv_bufsize=12000 / crf_max=0.0 / nal_hrd=none / filler=0 / ip_ratio=1.40 / aq=1:0.60
Language : Japanese
Default : Yes
Forced : No

Audio
ID : 2
Format : AAC
Format/Info : Advanced Audio Codec
Format profile : LC
Codec ID : A_AAC-2
Duration : 10 min 24 s
Bit rate : 128 kb/s
Channel(s) : 2 channels
Channel positions : Front: L R
Sampling rate : 44.1 kHz
Frame rate : 43.066 FPS (1024 SPF)
Compression mode : Lossy
Delay relative to video : -83 ms
Stream size : 9.52 MiB (3%)
Language : Japanese
Default : Yes
Forced : No

Text #1
ID : 3
Format : ASS
Codec ID : S_TEXT/ASS
Codec ID/Info : Advanced Sub Station Alpha
Duration : 10 min 8 s
Bit rate : 123 b/s
Count of elements : 158
Compression mode : Lossless
Stream size : 9.14 KiB (0%)
Title : English(US)
Language : English
Default : Yes
Forced : No

Text #2
ID : 4
Format : ASS
Codec ID : S_TEXT/ASS
Codec ID/Info : Advanced Sub Station Alpha
Duration : 9 min 54 s
Bit rate : 147 b/s
Count of elements : 162
Compression mode : Lossless
Stream size : 10.7 KiB (0%)
Title : Arabic
Language : Arabic
Default : No
Forced : No

Text #3
ID : 5
Format : ASS
Codec ID : S_TEXT/ASS
Codec ID/Info : Advanced Sub Station Alpha
Duration : 10 min 8 s
Bit rate : 131 b/s
Count of elements : 156
Compression mode : Lossless
Stream size : 9.75 KiB (0%)
Title : Deutsch
Language : German
Default : No
Forced : No

Text #4
ID : 6
Format : ASS
Codec ID : S_TEXT/ASS
Codec ID/Info : Advanced Sub Station Alpha
Duration : 10 min 8 s
Bit rate : 106 b/s
Count of elements : 123
Compression mode : Lossless
Stream size : 7.93 KiB (0%)
Title : Francais(France)
Language : French
Default : No
Forced : No

Text #5
ID : 7
Format : ASS
Codec ID : S_TEXT/ASS
Codec ID/Info : Advanced Sub Station Alpha
Duration : 10 min 8 s
Bit rate : 121 b/s
Count of elements : 159
Compression mode : Lossless
Stream size : 9.05 KiB (0%)
Title : Italiano
Language : Italian
Default : No
Forced : No

Text #6
ID : 8
Format : ASS
Codec ID : S_TEXT/ASS
Codec ID/Info : Advanced Sub Station Alpha
Duration : 9 min 54 s
Bit rate : 129 b/s
Count of elements : 162
Compression mode : Lossless
Stream size : 9.37 KiB (0%)
Title : Portugues(Brasil)
Language : Portuguese
Default : No
Forced : No

Text #7
ID : 9
Format : ASS
Codec ID : S_TEXT/ASS
Codec ID/Info : Advanced Sub Station Alpha
Duration : 10 min 8 s
Bit rate : 150 b/s
Count of elements : 158
Compression mode : Lossless
Stream size : 11.2 KiB (0%)
Title : Russian
Language : Russian
Default : No
Forced : No

Text #8
ID : 10
Format : ASS
Codec ID : S_TEXT/ASS
Codec ID/Info : Advanced Sub Station Alpha
Duration : 9 min 54 s
Bit rate : 120 b/s
Count of elements : 146
Compression mode : Lossless
Stream size : 8.73 KiB (0%)
Language : Spanish
Default : No
Forced : No

Text #9
ID : 11
Format : ASS
Codec ID : S_TEXT/ASS
Codec ID/Info : Advanced Sub Station Alpha
Duration : 9 min 54 s
Bit rate : 120 b/s
Count of elements : 146
Compression mode : Lossless
Stream size : 8.73 KiB (0%)
Language : Spanish
Default : No
Forced : No


Screenshots

Itou Junji: Collection (2018)

Itou Junji: Collection (2018)

Itou Junji: Collection (2018)


My publications | Rss Channel