Tags
Language
Tags
November 2022
Su Mo Tu We Th Fr Sa
30 31 1 2 3 4 5
6 7 8 9 10 11 12
13 14 15 16 17 18 19
20 21 22 23 24 25 26
27 28 29 30 1 2 3

Toradora! (2008-2009)

Posted By: Lebedev30
Toradora! (2008-2009)

Toradora! (2008-2009)
WEBRip | MKV | 1920x1080 | H264@6538 Kbps | 25x ~ 25mn | 25x ~1.1 Gb
日本語 AAC@128 Kbps | 2 channels | Subtitles: English, Español, Português
Genre: comedy, coming of age, high school, love polygon, romance, school life


Description:
* Based on a light novel series by Takemiya Yuyuko, illustrated by Yasu.

Takasu Ryuuji is frustrated with the way he looks as he enters his second year of high school, for despite his gentle personality, he actually looks like an intimidating delinquent. Thus he does not see his chances of getting a girlfriend improving any time soon, and does not have many close friends either. After being greeted by his hungover mother in the morning, Ryuuji goes to school and finds out that he is in the same class as his best friend Kitamura Yuusaku. But what makes him extremely happy is that he gets to be in the same class as his crush Kushieda Minori. However, it is then that he unexpectedly bumps into Aisaka Taiga — the creature ranked most dangerous in the school — who goes by the nickname Palmtop Tiger and also just happens to be in his class.

Taiga has a negative attitude towards others and will not hesitate to snap at people. After a series of misunderstandings between Ryuuji and Taiga, Ryuuji is taken in by Taiga as her personal servant. Taiga had moved out to live on her own due to family issues and is inept at doing household chores. After discovering the state of her apartment Ryuuji, who has a real talent for domestic chores, decides to do all of her house work. Taiga spends a lot of her time over at his house, so much so that she could almost be considered a member of his family. And since Ryuuji spends a lot of time with Taiga, he opens up to her world and to a side of her that most people do not see. The two also attempt to help each other in order to improve their relationship with their respective crushes — Taiga has a crush on Ryuuji's best friend, Yuusaku, and Ryuuji has a crush on Taiga's best friend, Minori. However, fellow students start to become curious about their strange relationship together and rumours begin to spread about them…






01. Tiger and Dragon
02. Ryuuji and Taiga
03. Your Song
04. That Moment`s Face
05. Kawashima Ami
06. True Colors
07. Pool Opening
08. For Whose Sake?
09. Let`s Go to the Ocean, You Say
10. Fireworks
11. Oohashi High School Festival - First Part
12. Oohashi High School Festival - Second Part
13. Oohashi High School Festival - Final Part
14. Palmtop Tiger of Bliss
15. The Stars Are Far Away
16. One Step Forward
17. Mercury Retrogrades at Christmas
18. Under the Fir Tree
19. Holy Night Party
20. Always, Like This
21. No Matter What
22. The Scene With You
23. The Road That We Must Advance on
24. Confession
25. Toradora!


General
Format : Matroska
Format version : Version 4 / Version 2
File size : 1.17 GiB
Duration : 25 min 6 s
Overall bit rate : 6 669 kb/s
Encoded date : UTC 2019-03-24 17:26:50
Writing application : mkvmerge v26.0.0 ('In The Game') 64-bit
Writing library : libebml v1.3.6 + libmatroska v1.4.9

Video
ID : 1
Format : AVC
Format/Info : Advanced Video Codec
Format profile : High@L4
Format settings : CABAC / 4 Ref Frames
Format settings, CABAC : Yes
Format settings, RefFrames : 4 frames
Codec ID : V_MPEG4/ISO/AVC
Duration : 25 min 6 s
Bit rate : 6 538 kb/s
Width : 1 920 pixels
Height : 1 080 pixels
Display aspect ratio : 16:9
Frame rate mode : Constant
Frame rate : 23.976 (23976/1000) FPS
Color space : YUV
Chroma subsampling : 4:2:0
Bit depth : 8 bits
Scan type : Progressive
Bits/(Pixel*Frame) : 0.132
Stream size : 1.15 GiB (98%)
Writing library : x264 core 142
Encoding settings : cabac=1 / ref=4 / deblock=1:1:1 / analyse=0x3:0x113 / me=umh / subme=8 / psy=1 / psy_rd=0.40:0.00 / mixed_ref=1 / me_range=16 / chroma_me=1 / trellis=1 / 8x8dct=1 / cqm=0 / deadzone=21,11 / fast_pskip=1 / chroma_qp_offset=-2 / threads=12 / lookahead_threads=2 / sliced_threads=0 / nr=0 / decimate=1 / interlaced=0 / bluray_compat=0 / constrained_intra=0 / bframes=3 / b_pyramid=2 / b_adapt=2 / b_bias=0 / direct=3 / weightb=1 / open_gop=0 / weightp=2 / keyint=48 / keyint_min=24 / scenecut=40 / intra_refresh=0 / rc_lookahead=48 / rc=crf / mbtree=1 / crf=15.0 / qcomp=0.60 / qpmin=0 / qpmax=69 / qpstep=4 / vbv_maxrate=8000 / vbv_bufsize=12000 / crf_max=0.0 / nal_hrd=none / filler=0 / ip_ratio=1.40 / aq=1:0.60
Default : Yes
Forced : No

Audio
ID : 2
Format : AAC
Format/Info : Advanced Audio Codec
Format profile : LC
Codec ID : A_AAC-2
Duration : 25 min 6 s
Bit rate : 128 kb/s
Channel(s) : 2 channels
Channel positions : Front: L R
Sampling rate : 44.1 kHz
Frame rate : 43.066 FPS (1024 SPF)
Compression mode : Lossy
Delay relative to video : -83 ms
Stream size : 23.0 MiB (2%)
Default : Yes
Forced : No

Text #1
ID : 3
Format : ASS
Codec ID : S_TEXT/ASS
Codec ID/Info : Advanced Sub Station Alpha
Duration : 25 min 0 s
Bit rate : 179 b/s
Count of elements : 521
Compression mode : Lossless
Stream size : 32.8 KiB (0%)
Title : English(US)
Language : English
Default : Yes
Forced : No

Text #2
ID : 4
Format : ASS
Codec ID : S_TEXT/ASS
Codec ID/Info : Advanced Sub Station Alpha
Duration : 25 min 0 s
Bit rate : 138 b/s
Count of elements : 414
Compression mode : Lossless
Stream size : 25.4 KiB (0%)
Title : Espanol
Language : Spanish
Default : No
Forced : No

Text #3
ID : 5
Format : ASS
Codec ID : S_TEXT/ASS
Codec ID/Info : Advanced Sub Station Alpha
Duration : 25 min 0 s
Bit rate : 165 b/s
Count of elements : 461
Compression mode : Lossless
Stream size : 30.3 KiB (0%)
Title : Portugues(Brasil)
Language : Portuguese
Default : No
Forced : No


Screenshots

Toradora! (2008-2009)

Toradora! (2008-2009)

Toradora! (2008-2009)


My publications | Rss Channel