Tags
Language
Tags

Try Knights (2019)

Posted By: Lebedev30
Try Knights (2019)

Try Knights (2019)
WEBRip | MKV | 1920x1080 | H264@4637 Kbps | 12x ~ 25mn | 12x ~800 Mb-1.2 Gb
日本語 AAC@128 Kbps | 2 channels | Subtitles: English, Español, Русский, Italiano, Deutsch, Français
Genre: shoujo, sports


Description:
Haruma Riku begins high school with no future in sight. Then, in a passing glance, his attention is captured by the wild, animal-like movements of a student on the school's athletic field. He jumps higher, runs faster, and tries harder than anyone Riku has ever seen. That student is Kariya Akira, and the sport he plays is the one Riku attempted in the past but gave up: rugby. As he watches Akira running in a rough, unrefined gait, Riku gives him a bit of advice without thinking, and those words end up setting his passion for rugby alight again.




01. The Moon and the Sun
02. Athleticism and Tactics
03. The Past and the Future
04. Failing and Overcoming
05. Opposition and Oaths
06. Cleansing and Conflict
07. Frenzy and Ambush
08. Rugby and Chess
09. Pawns and Teammates
10. Soran and Sekirei
11. Confidence and Trust
12. Younger and Elder


General
Format : Matroska
Format version : Version 4 / Version 2
File size : 779 MiB
Duration : 22 min 51 s
Overall bit rate : 4 765 kb/s
Encoded date : UTC 2019-07-30 17:33:59
Writing application : mkvmerge v26.0.0 ('In The Game') 64-bit
Writing library : libebml v1.3.6 + libmatroska v1.4.9

Video
ID : 1
Format : AVC
Format/Info : Advanced Video Codec
Format profile : High@L4
Format settings : CABAC / 4 Ref Frames
Format settings, CABAC : Yes
Format settings, RefFrames : 4 frames
Codec ID : V_MPEG4/ISO/AVC
Duration : 22 min 50 s
Bit rate : 4 637 kb/s
Width : 1 920 pixels
Height : 1 080 pixels
Display aspect ratio : 16:9
Frame rate mode : Constant
Frame rate : 23.976 (24000/1001) FPS
Color space : YUV
Chroma subsampling : 4:2:0
Bit depth : 8 bits
Scan type : Progressive
Bits/(Pixel*Frame) : 0.093
Stream size : 757 MiB (97%)
Writing library : x264 core 142
Encoding settings : cabac=1 / ref=4 / deblock=1:1:1 / analyse=0x3:0x113 / me=umh / subme=8 / psy=1 / psy_rd=0.40:0.00 / mixed_ref=1 / me_range=16 / chroma_me=1 / trellis=1 / 8x8dct=1 / cqm=0 / deadzone=21,11 / fast_pskip=1 / chroma_qp_offset=-2 / threads=12 / lookahead_threads=2 / sliced_threads=0 / nr=0 / decimate=1 / interlaced=0 / bluray_compat=0 / constrained_intra=0 / bframes=3 / b_pyramid=2 / b_adapt=2 / b_bias=0 / direct=3 / weightb=1 / open_gop=0 / weightp=2 / keyint=96 / keyint_min=48 / scenecut=40 / intra_refresh=0 / rc_lookahead=48 / rc=crf / mbtree=1 / crf=15.0 / qcomp=0.60 / qpmin=0 / qpmax=69 / qpstep=4 / vbv_maxrate=8000 / vbv_bufsize=12000 / crf_max=0.0 / nal_hrd=none / filler=0 / ip_ratio=1.40 / aq=1:0.60
Default : Yes
Forced : No

Audio
ID : 2
Format : AAC
Format/Info : Advanced Audio Codec
Format profile : LC
Codec ID : A_AAC-2
Duration : 22 min 50 s
Bit rate : 128 kb/s
Channel(s) : 2 channels
Channel positions : Front: L R
Sampling rate : 44.1 kHz
Frame rate : 43.066 FPS (1024 SPF)
Compression mode : Lossy
Delay relative to video : -83 ms
Stream size : 20.9 MiB (3%)
Default : Yes
Forced : No

Text #1
ID : 3
Format : ASS
Codec ID : S_TEXT/ASS
Codec ID/Info : Advanced Sub Station Alpha
Duration : 22 min 43 s
Bit rate : 112 b/s
Count of elements : 263
Compression mode : Lossless
Stream size : 18.7 KiB (0%)
Title : English(US)
Language : English
Default : Yes
Forced : No

Text #2
ID : 4
Format : ASS
Codec ID : S_TEXT/ASS
Codec ID/Info : Advanced Sub Station Alpha
Duration : 22 min 41 s
Bit rate : 102 b/s
Count of elements : 259
Compression mode : Lossless
Stream size : 17.1 KiB (0%)
Title : Francais(France)
Language : French
Default : No
Forced : No

Text #3
ID : 5
Format : ASS
Codec ID : S_TEXT/ASS
Codec ID/Info : Advanced Sub Station Alpha
Duration : 22 min 43 s
Bit rate : 120 b/s
Count of elements : 259
Compression mode : Lossless
Stream size : 20.1 KiB (0%)
Title : Deutsch
Language : German
Default : No
Forced : No

Text #4
ID : 6
Format : ASS
Codec ID : S_TEXT/ASS
Codec ID/Info : Advanced Sub Station Alpha
Duration : 22 min 44 s
Bit rate : 108 b/s
Count of elements : 318
Compression mode : Lossless
Stream size : 18.1 KiB (0%)
Title : Italiano
Language : Italian
Default : No
Forced : No

Text #5
ID : 7
Format : ASS
Codec ID : S_TEXT/ASS
Codec ID/Info : Advanced Sub Station Alpha
Duration : 22 min 43 s
Bit rate : 91 b/s
Count of elements : 253
Compression mode : Lossless
Stream size : 15.2 KiB (0%)
Title : Espanol(Espana)
Language : Spanish
Default : No
Forced : No

Text #6
ID : 8
Format : ASS
Codec ID : S_TEXT/ASS
Codec ID/Info : Advanced Sub Station Alpha
Duration : 22 min 42 s
Bit rate : 86 b/s
Count of elements : 249
Compression mode : Lossless
Stream size : 14.4 KiB (0%)
Title : Espanol
Language : Spanish
Default : No
Forced : No

Text #7
ID : 9
Format : ASS
Codec ID : S_TEXT/ASS
Codec ID/Info : Advanced Sub Station Alpha
Duration : 22 min 43 s
Bit rate : 132 b/s
Count of elements : 262
Compression mode : Lossless
Stream size : 22.1 KiB (0%)
Title : Russian
Language : Russian
Default : No
Forced : No


Screenshots

Try Knights (2019)

Try Knights (2019)

Try Knights (2019)


My publications | Rss Channel