Tags
Language
Tags

Tsugumomo (2017)

Posted By: Lebedev30
Tsugumomo (2017)

Tsugumomo (2017)
WEBRip | MKV | 1920x1080 | H264@4237 Kbps | 12x ~ 25mn | 12x ~700 Mb
日本語 AAC@126 Kbps | 2 channels | Subtitles: العربية, English, Español, Português, Italiano, Deutsch, Français
Genre: action, deity, ecchi, fantasy, harem, loli, middle school, romance, school life, shounen, small breasts


Description:

Kagami Kazuya's most treasured possession in the world is the obi left to him by his late mother. The scent of cherry blossoms infused into it helps him through his day, but he never expected it to save his life, becoming a beautiful kimono-clad girl who calls herself an artifact spirit. Her name is Kiriha, tsukumogami of the sash, who naturally moves in with him, as he is her owner. Throw in his bespectacled childhood friend Chisato who meddles in his affairs, an overprotective older sister who wants to take baths with him, a busty priestess, a seductive sorceress named Kokuyoura, and Kazuya's life has just gotten a lot more interesting.






01. The Scent of Cherry Blossoms
02. The Library and the Childhood Friend
03. Kukuri-hime
04. Trials of the Local God
05. Training
06. Memories and Childhood Friends
07. Kanayama-san
08. A Certain Day in the Kagami Household / The Super Popular Fragrance
09. Letter
10. Nude in the Futon
11. Duel
12. Partner


General
Format : Matroska
Format version : Version 4 / Version 2
File size : 737 MiB
Duration : 23 min 36 s
Overall bit rate : 4 364 kb/s
Encoded date : UTC 2017-05-26 14:15:07
Writing application : mkvmerge v10.0.0 ('To Drown In You') 64bit
Writing library : libebml v1.3.4 + libmatroska v1.4.5

Video
ID : 1
Format : AVC
Format/Info : Advanced Video Codec
Format profile : High@L4
Format settings : CABAC / 4 Ref Frames
Format settings, CABAC : Yes
Format settings, RefFrames : 4 frames
Codec ID : V_MPEG4/ISO/AVC
Duration : 23 min 35 s
Bit rate : 4 237 kb/s
Width : 1 920 pixels
Height : 1 080 pixels
Display aspect ratio : 16:9
Frame rate mode : Constant
Frame rate : 23.976 (24000/1001) FPS
Color space : YUV
Chroma subsampling : 4:2:0
Bit depth : 8 bits
Scan type : Progressive
Bits/(Pixel*Frame) : 0.085
Stream size : 715 MiB (97%)
Writing library : x264 core 142
Encoding settings : cabac=1 / ref=4 / deblock=1:1:1 / analyse=0x3:0x113 / me=umh / subme=8 / psy=1 / psy_rd=0.40:0.00 / mixed_ref=1 / me_range=16 / chroma_me=1 / trellis=1 / 8x8dct=1 / cqm=0 / deadzone=21,11 / fast_pskip=1 / chroma_qp_offset=-2 / threads=12 / lookahead_threads=2 / sliced_threads=0 / nr=0 / decimate=1 / interlaced=0 / bluray_compat=0 / constrained_intra=0 / bframes=3 / b_pyramid=2 / b_adapt=2 / b_bias=0 / direct=3 / weightb=1 / open_gop=0 / weightp=2 / keyint=48 / keyint_min=24 / scenecut=40 / intra_refresh=0 / rc_lookahead=48 / rc=crf / mbtree=1 / crf=16.0 / qcomp=0.60 / qpmin=0 / qpmax=69 / qpstep=4 / vbv_maxrate=8000 / vbv_bufsize=12000 / crf_max=0.0 / nal_hrd=none / filler=0 / ip_ratio=1.40 / aq=1:0.60
Language : Japanese
Default : Yes
Forced : No

Audio
ID : 2
Format : AAC
Format/Info : Advanced Audio Codec
Format profile : LC
Codec ID : A_AAC-2
Duration : 23 min 35 s
Bit rate : 126 kb/s
Channel(s) : 2 channels
Channel positions : Front: L R
Sampling rate : 44.1 kHz
Frame rate : 43.066 FPS (1024 SPF)
Compression mode : Lossy
Delay relative to video : -83 ms
Stream size : 21.2 MiB (3%)
Language : Japanese
Default : Yes
Forced : No

Text #1
ID : 3
Format : ASS
Codec ID : S_TEXT/ASS
Codec ID/Info : Advanced Sub Station Alpha
Duration : 23 min 27 s
Bit rate : 121 b/s
Count of elements : 359
Compression mode : Lossless
Stream size : 20.9 KiB (0%)
Title : Deutsch
Default : No
Forced : No

Text #2
ID : 4
Format : ASS
Codec ID : S_TEXT/ASS
Codec ID/Info : Advanced Sub Station Alpha
Duration : 23 min 28 s
Bit rate : 125 b/s
Count of elements : 346
Compression mode : Lossless
Stream size : 21.6 KiB (0%)
Title : English
Default : Yes
Forced : No

Text #3
ID : 5
Format : ASS
Codec ID : S_TEXT/ASS
Codec ID/Info : Advanced Sub Station Alpha
Duration : 23 min 28 s
Bit rate : 113 b/s
Count of elements : 319
Compression mode : Lossless
Stream size : 19.6 KiB (0%)
Title : Español (España)
Default : No
Forced : No

Text #4
ID : 6
Format : ASS
Codec ID : S_TEXT/ASS
Codec ID/Info : Advanced Sub Station Alpha
Duration : 23 min 28 s
Bit rate : 113 b/s
Count of elements : 319
Compression mode : Lossless
Stream size : 19.5 KiB (0%)
Title : Español
Default : No
Forced : No

Text #5
ID : 7
Format : ASS
Codec ID : S_TEXT/ASS
Codec ID/Info : Advanced Sub Station Alpha
Duration : 23 min 27 s
Bit rate : 115 b/s
Count of elements : 313
Compression mode : Lossless
Stream size : 19.9 KiB (0%)
Title : Français (France)
Default : No
Forced : No

Text #6
ID : 8
Format : ASS
Codec ID : S_TEXT/ASS
Codec ID/Info : Advanced Sub Station Alpha
Duration : 23 min 28 s
Bit rate : 127 b/s
Count of elements : 338
Compression mode : Lossless
Stream size : 22.0 KiB (0%)
Title : Italiano
Default : No
Forced : No

Text #7
ID : 9
Format : ASS
Codec ID : S_TEXT/ASS
Codec ID/Info : Advanced Sub Station Alpha
Duration : 23 min 28 s
Bit rate : 123 b/s
Count of elements : 341
Compression mode : Lossless
Stream size : 21.3 KiB (0%)
Title : Português (Brazil)
Default : No
Forced : No

Text #8
ID : 10
Format : ASS
Codec ID : S_TEXT/ASS
Codec ID/Info : Advanced Sub Station Alpha
Duration : 23 min 28 s
Bit rate : 149 b/s
Count of elements : 341
Compression mode : Lossless
Stream size : 25.6 KiB (0%)
Title : العربية (Arabic)
Default : No
Forced : No


Screenshots

Tsugumomo (2017)

Tsugumomo (2017)

Tsugumomo (2017)


My publications | Rss Channel