Tags
Language
Tags
March 2024
Su Mo Tu We Th Fr Sa
25 26 27 28 29 1 2
3 4 5 6 7 8 9
10 11 12 13 14 15 16
17 18 19 20 21 22 23
24 25 26 27 28 29 30
31 1 2 3 4 5 6
Attention❗ To save your time, in order to download anything on this site, you must be registered 👉 HERE. If you do not have a registration yet, it is better to do it right away. ✌

( • )( • ) ( ͡⚆ ͜ʖ ͡⚆ ) (‿ˠ‿)
SpicyMags.xyz

Tsurezure Children (2017)

Posted By: Lebedev30
Tsurezure Children (2017)

Tsurezure Children (2017)
WEBRip | MKV | 1920x1080 | H264@3028 Kbps | 12x ~ 12mn | 12x ~300 Mb
日本語 AAC@128 Kbps | 2 channels | Subtitles: العربية, English, Español, Português, Italiano, Deutsch, Français
Genre: half-length episodes, romance, school life, shounen


Description:
To those of you out there who never could say "I love you"— This story is about ordinary highschoolers and how love makes them fired up, shaken, laugh, cry, and hurt. Whether things go well or not, this story of adolescence and romance will show you how they spend their precious youth. Every character is the main character here, and you're sure to find one you can sympathize with.






01. Confession / She`s a Slacker / The Student President`s Woes / Spica
02. My Brother`s Girlfriend / Spring / Contact / Rain
03. Point-Blank Relationship / I`ll Kill Senpai / Love Is Derpy / Cleanup Duty
04. Romantic Comedy / Let`s Find Out / The Answer / You`re Beautiful
05. Re: / Childhood Friend / Watching You from Afar
06. Authority / X-File / We Don`t Need Girls / Dating Master
07. Trap / Tell Me / Advice / It`s All the Fever`s Fault
08. Wanting More / Shoot / Boobs / Bruised-Up Angel
09. Gaze / Square One / Once More / Like
10. Leave Behind My Corpse / Jealousy / Lovers / Bubbles
11. Tuning / Water Under the Bridge / Exam
12. Sports Day / Summer Begins


General
Format : Matroska
Format version : Version 4 / Version 2
File size : 283 MiB
Duration : 12 min 31 s
Overall bit rate : 3 154 kb/s
Encoded date : UTC 2017-07-04 16:46:01
Writing application : mkvmerge v12.0.0 ('Trust / Lust') 64bit
Writing library : libebml v1.3.4 + libmatroska v1.4.5

Video
ID : 1
Format : AVC
Format/Info : Advanced Video Codec
Format profile : High@L4
Format settings : CABAC / 4 Ref Frames
Format settings, CABAC : Yes
Format settings, RefFrames : 4 frames
Codec ID : V_MPEG4/ISO/AVC
Duration : 12 min 30 s
Bit rate : 3 028 kb/s
Width : 1 920 pixels
Height : 1 080 pixels
Display aspect ratio : 16:9
Frame rate mode : Constant
Frame rate : 23.976 (24000/1001) FPS
Color space : YUV
Chroma subsampling : 4:2:0
Bit depth : 8 bits
Scan type : Progressive
Bits/(Pixel*Frame) : 0.061
Stream size : 271 MiB (96%)
Writing library : x264 core 142
Encoding settings : cabac=1 / ref=4 / deblock=1:1:1 / analyse=0x3:0x113 / me=umh / subme=8 / psy=1 / psy_rd=0.40:0.00 / mixed_ref=1 / me_range=16 / chroma_me=1 / trellis=1 / 8x8dct=1 / cqm=0 / deadzone=21,11 / fast_pskip=1 / chroma_qp_offset=-2 / threads=12 / lookahead_threads=2 / sliced_threads=0 / nr=0 / decimate=1 / interlaced=0 / bluray_compat=0 / constrained_intra=0 / bframes=3 / b_pyramid=2 / b_adapt=2 / b_bias=0 / direct=3 / weightb=1 / open_gop=0 / weightp=2 / keyint=48 / keyint_min=24 / scenecut=40 / intra_refresh=0 / rc_lookahead=48 / rc=crf / mbtree=1 / crf=15.0 / qcomp=0.60 / qpmin=0 / qpmax=69 / qpstep=4 / vbv_maxrate=8000 / vbv_bufsize=12000 / crf_max=0.0 / nal_hrd=none / filler=0 / ip_ratio=1.40 / aq=1:0.60
Language : Japanese
Default : Yes
Forced : No

Audio
ID : 2
Format : AAC
Format/Info : Advanced Audio Codec
Format profile : LC
Codec ID : A_AAC-2
Duration : 12 min 30 s
Bit rate : 128 kb/s
Channel(s) : 2 channels
Channel positions : Front: L R
Sampling rate : 44.1 kHz
Frame rate : 43.066 FPS (1024 SPF)
Compression mode : Lossy
Delay relative to video : -83 ms
Stream size : 11.4 MiB (4%)
Language : Japanese
Default : Yes
Forced : No

Text #1
ID : 3
Format : ASS
Codec ID : S_TEXT/ASS
Codec ID/Info : Advanced Sub Station Alpha
Duration : 11 min 14 s
Bit rate : 190 b/s
Count of elements : 242
Compression mode : Lossless
Stream size : 15.7 KiB (0%)
Title : Deutsch
Default : No
Forced : No

Text #2
ID : 4
Format : ASS
Codec ID : S_TEXT/ASS
Codec ID/Info : Advanced Sub Station Alpha
Duration : 11 min 14 s
Bit rate : 179 b/s
Count of elements : 245
Compression mode : Lossless
Stream size : 14.8 KiB (0%)
Title : English
Default : Yes
Forced : No

Text #3
ID : 5
Format : ASS
Codec ID : S_TEXT/ASS
Codec ID/Info : Advanced Sub Station Alpha
Duration : 11 min 15 s
Bit rate : 153 b/s
Count of elements : 216
Compression mode : Lossless
Stream size : 12.7 KiB (0%)
Title : Español (España)
Default : No
Forced : No

Text #4
ID : 6
Format : ASS
Codec ID : S_TEXT/ASS
Codec ID/Info : Advanced Sub Station Alpha
Duration : 11 min 15 s
Bit rate : 153 b/s
Count of elements : 216
Compression mode : Lossless
Stream size : 12.7 KiB (0%)
Title : Español
Default : No
Forced : No

Text #5
ID : 7
Format : ASS
Codec ID : S_TEXT/ASS
Codec ID/Info : Advanced Sub Station Alpha
Duration : 11 min 12 s
Bit rate : 171 b/s
Count of elements : 200
Compression mode : Lossless
Stream size : 14.1 KiB (0%)
Title : Français (France)
Default : No
Forced : No

Text #6
ID : 8
Format : ASS
Codec ID : S_TEXT/ASS
Codec ID/Info : Advanced Sub Station Alpha
Duration : 11 min 14 s
Bit rate : 193 b/s
Count of elements : 258
Compression mode : Lossless
Stream size : 16.0 KiB (0%)
Title : Italiano
Default : No
Forced : No

Text #7
ID : 9
Format : ASS
Codec ID : S_TEXT/ASS
Codec ID/Info : Advanced Sub Station Alpha
Duration : 11 min 14 s
Bit rate : 192 b/s
Count of elements : 242
Compression mode : Lossless
Stream size : 15.8 KiB (0%)
Title : Português (Brazil)
Default : No
Forced : No

Text #8
ID : 10
Format : ASS
Codec ID : S_TEXT/ASS
Codec ID/Info : Advanced Sub Station Alpha
Duration : 11 min 14 s
Bit rate : 209 b/s
Count of elements : 245
Compression mode : Lossless
Stream size : 17.2 KiB (0%)
Title : العربية (Arabic)
Default : No
Forced : No


Screenshots

Tsurezure Children (2017)

Tsurezure Children (2017)

Tsurezure Children (2017)


My publications | Rss Channel